<?xml version="1.0" encoding="UTF-8"?>
<svg xmlns="http://www.w3.org/2000/svg" xmlns:xlink="http://www.w3.org/1999/xlink" version="1.2" >
<font id="Univers LT Std 75 Black">
<font-face  font-family="Univers LT Std" units-per-em="1000" ascent="724" descent="-276" font-style="normal" font-weight="850" font-stretch="normal" cap-height="724" x-height="498" underline-position="-75" underline-thickness="50" />
<missing-glyph  horiz-adv-x="500" d="M0 0 L500 0 L500 700 L0 700 L0 0 Z M250 395 L80 650 L420 650 L250 395 Z M280 350 L450 605 L450 95 L280 350 Z M80 50 L250 305 L420 50 L80 50 Z M50 605 L220 350 L50 95 L50 605 Z " />
<glyph glyph-name="NULL" d="" />
<glyph glyph-name="CR" unicode="&#xd;" horiz-adv-x="250" d="" />
<glyph glyph-name="space" unicode="&#x20;" horiz-adv-x="333" d="" />
<glyph glyph-name="exclam" unicode="&#x21;" horiz-adv-x="444" d="M111 722 L148 215 L292 215 L327 722 L111 722 Z M133 0 L309 0 L309 149 L133 149 L133 0 Z " />
<glyph glyph-name="quotedbl" unicode="&#x22;" horiz-adv-x="500" d="M208 427 L237 693 L80 693 L109 427 L208 427 Z M405 427 L434 693 L278 693 L307 427 L405 427 Z " />
<glyph glyph-name="numbersign" unicode="&#x23;" horiz-adv-x="667" d="M215 693 L183 519 L80 519 L80 400 L161 400 L139 285 L36 285 L36 166 L117 166 L86 0 L226 0 L256 166 L345 166 L315 0 L454 0 L485 166 L587 166 L587 285 L507 285 L528 400 L631 400 L631 519 L550 519 L582 693 L443 693 L411 519 L322 519 L354 693 L215 693 Z M278 285 L300 400 L389 400 L367 285 L278 285 Z " />
<glyph glyph-name="dollar" unicode="&#x24;" horiz-adv-x="667" d="M42 207 C43 24 194 -9 295 -13 L295 -102 L354 -102 L354 -13 C416 -9 462 0 499 18 C601 68 615 154 615 196 C615 247 595 296 557 328 C510 367 458 379 354 402 L354 545 C369 543 410 530 409 460 L591 460 C590 567 553 656 354 665 L354 755 L295 755 L295 665 C119 660 53 558 53 464 C53 328 164 298 232 280 L295 263 L295 110 C227 127 223 178 222 207 L42 207 Z M295 418 C261 426 238 452 238 482 C238 497 242 532 295 546 L295 418 Z M354 250 L370 245 C383 242 428 230 428 181 C428 147 405 116 354 108 L354 250 Z " />
<glyph glyph-name="percent" unicode="&#x25;" horiz-adv-x="1000" d="M67 536 C67 483 76 419 114 378 C146 343 195 328 239 328 C299 328 347 354 375 391 C400 424 412 464 412 539 C412 623 394 659 368 689 C327 734 265 738 240 738 C67 738 67 579 67 536 L67 536 Z M193 523 C193 641 215 652 240 652 C266 652 285 640 285 533 C285 446 273 418 239 418 C219 418 193 424 193 523 L193 523 Z M617 208 C617 155 626 92 664 50 C696 16 745 0 789 0 C849 0 897 26 925 63 C949 96 962 137 962 211 C962 295 944 331 917 361 C877 406 815 411 790 411 C617 411 617 252 617 208 L617 208 Z M743 196 C743 314 765 324 790 324 C816 324 835 312 835 206 C835 118 822 90 788 90 C768 90 743 96 743 196 L743 196 Z M649 750 L270 -12 L381 -12 L756 750 L649 750 Z " />
<glyph glyph-name="ampersand" unicode="&#x26;" horiz-adv-x="889" d="M667 398 C666 378 665 330 615 267 L512 369 C574 411 648 461 648 562 C648 728 454 740 385 740 C241 740 114 688 114 564 C114 477 182 420 214 392 C152 366 44 321 44 198 C44 140 70 99 87 77 C149 -3 281 -14 347 -14 C485 -14 547 21 593 47 L636 0 L879 0 L733 155 C814 239 836 308 840 398 L667 398 Z M383 476 C313 534 311 554 311 571 C311 606 344 630 386 630 C426 630 461 609 461 571 C461 523 400 485 383 476 L383 476 Z M478 153 C451 121 408 109 369 109 C288 109 254 156 254 193 C254 224 273 253 344 285 L478 153 Z " />
<glyph glyph-name="quotesingle" unicode="&#x27;" horiz-adv-x="333" d="M216 427 L245 693 L88 693 L117 427 L216 427 Z " />
<glyph glyph-name="parenleft" unicode="&#x28;" horiz-adv-x="333" d="M166 753 C115 633 47 471 47 312 C47 139 118 -19 165 -122 L297 -122 C222 101 208 205 208 317 C208 434 224 510 296 753 L166 753 Z " />
<glyph glyph-name="parenright" unicode="&#x29;" horiz-adv-x="333" d="M167 -122 C218 -1 286 161 286 320 C286 493 215 651 168 753 L36 753 C111 531 125 427 125 315 C125 198 109 121 37 -122 L167 -122 Z " />
<glyph glyph-name="asterisk" unicode="&#x2a;" horiz-adv-x="556" d="M275 597 L231 734 L124 670 L218 565 L79 595 L79 468 L216 497 L123 388 L230 325 L274 461 L317 326 L431 387 L336 497 L470 466 L470 595 L333 565 L426 667 L317 735 L275 597 Z " />
<glyph glyph-name="plus" unicode="&#x2b;" horiz-adv-x="660" d="M259 0 L402 0 L402 199 L599 199 L599 339 L402 339 L402 538 L259 538 L259 339 L61 339 L61 199 L259 199 L259 0 Z " />
<glyph glyph-name="comma" unicode="&#x2c;" horiz-adv-x="333" d="M89 149 L23 -119 L159 -119 L277 149 L89 149 Z " />
<glyph glyph-name="hyphen" unicode="&#x2d;" horiz-adv-x="333" d="M22 323 L22 204 L306 204 L306 323 L22 323 Z " />
<glyph glyph-name="period" unicode="&#x2e;" horiz-adv-x="333" d="M72 0 L248 0 L248 149 L72 149 L72 0 Z " />
<glyph glyph-name="slash" unicode="&#x2f;" horiz-adv-x="278" d="M95 -16 L314 727 L189 727 L-31 -16 L95 -16 Z " />
<glyph glyph-name="zero" unicode="0" horiz-adv-x="667" d="M30 350 C30 281 41 157 117 70 C169 10 249 -14 329 -14 C551 -14 629 152 629 351 C629 489 593 568 547 623 C517 661 458 713 326 713 C263 713 174 698 113 624 C41 538 30 416 30 350 L30 350 Z M226 347 C226 557 275 581 331 581 C395 581 411 535 418 510 C432 459 435 378 435 343 C435 328 435 213 405 159 C390 133 359 118 328 118 C246 118 226 199 226 347 L226 347 Z " />
<glyph glyph-name="one" unicode="1" horiz-adv-x="667" d="M277 0 L470 0 L470 694 L308 694 C234 630 188 608 108 583 L108 429 C141 438 224 471 277 515 L277 0 Z " />
<glyph glyph-name="two" unicode="2" horiz-adv-x="667" d="M35 0 L602 0 L602 138 L272 138 C464 276 600 374 600 518 C600 558 589 597 563 630 C518 688 442 715 336 715 C277 715 158 706 99 635 C51 577 49 523 49 501 L244 501 C246 520 251 582 326 582 C351 582 401 574 401 512 C401 480 389 454 376 433 C325 360 192 260 35 144 L35 0 Z " />
<glyph glyph-name="three" unicode="3" horiz-adv-x="667" d="M25 200 C27 168 30 117 78 67 C131 11 207 -13 322 -13 C459 -13 515 21 549 46 C606 87 622 143 622 193 C622 342 484 358 447 362 L447 367 C542 377 608 448 608 532 C608 637 511 716 331 716 C173 716 47 653 42 508 L235 508 C238 576 290 588 324 588 C380 588 418 558 418 510 C418 502 418 434 332 422 C291 416 253 418 227 419 L227 295 C240 296 260 297 282 297 C322 297 428 297 428 208 C428 165 404 116 320 116 C245 116 221 155 219 200 L25 200 Z " />
<glyph glyph-name="four" unicode="4" horiz-adv-x="667" d="M352 0 L532 0 L532 138 L644 138 L644 265 L532 265 L532 697 L310 697 L17 301 L17 138 L352 138 L352 0 Z M146 265 L355 550 L355 265 L146 265 Z " />
<glyph glyph-name="five" unicode="5" horiz-adv-x="667" d="M49 198 C50 167 52 115 99 64 C162 -5 279 -15 336 -15 C396 -15 480 -5 540 51 C606 112 616 201 616 244 C616 412 501 473 401 473 C368 473 337 467 308 452 C263 431 247 405 236 387 L248 557 L574 557 L574 693 L74 693 L60 286 L252 284 C257 315 283 345 331 345 C399 345 421 292 421 237 C421 219 418 188 406 164 C395 144 376 119 326 119 C278 119 242 145 240 198 L49 198 Z " />
<glyph glyph-name="six" unicode="6" horiz-adv-x="667" d="M596 522 C589 685 439 713 346 713 C109 713 37 529 37 348 C37 237 62 159 103 98 C162 9 259 -14 342 -14 C467 -14 627 48 627 241 C627 378 536 468 397 468 C278 468 236 406 219 381 C219 418 218 474 235 516 C250 554 279 595 334 595 C345 595 363 593 379 583 C396 572 410 554 413 522 L596 522 Z M451 232 C451 162 411 115 341 115 C290 115 234 141 234 229 C234 301 274 349 345 349 C445 349 451 257 451 232 L451 232 Z " />
<glyph glyph-name="seven" unicode="7" horiz-adv-x="667" d="M46 550 L400 550 L113 0 L336 0 L597 551 L597 691 L46 691 L46 550 Z " />
<glyph glyph-name="eight" unicode="8" horiz-adv-x="667" d="M214 365 C86 344 31 273 31 188 C31 88 105 -14 338 -14 C542 -14 626 77 626 193 C626 286 563 350 450 362 L450 367 C567 389 601 470 601 529 C601 564 591 596 570 623 C517 694 427 712 333 712 C210 712 159 683 127 661 C94 638 58 594 58 526 C58 429 128 377 214 368 L214 365 Z M330 426 C261 426 235 466 235 512 C235 569 279 596 329 596 C404 596 424 544 424 511 C424 494 418 426 330 426 L330 426 Z M329 111 C232 111 214 173 214 208 C214 252 242 306 327 306 C410 306 445 259 445 207 C445 166 421 111 329 111 L329 111 Z " />
<glyph glyph-name="nine" unicode="9" horiz-adv-x="667" d="M36 178 C38 149 41 102 79 62 C137 2 218 -16 307 -16 C393 -16 483 1 548 83 C609 160 623 265 623 345 C623 417 613 489 585 555 C560 614 504 714 320 714 C145 714 31 614 31 473 C31 410 54 354 94 313 C131 276 178 250 271 250 C355 250 399 282 433 321 C431 197 418 109 312 109 C256 109 221 139 220 178 L36 178 Z M317 369 C238 369 211 427 211 479 C211 539 245 587 319 587 C404 587 427 523 427 477 C427 415 392 369 317 369 L317 369 Z " />
<glyph glyph-name="colon" unicode="&#x3a;" horiz-adv-x="333" d="M79 0 L255 0 L255 149 L79 149 L79 0 Z M79 352 L255 352 L255 501 L79 501 L79 352 Z " />
<glyph glyph-name="semicolon" unicode="&#x3b;" horiz-adv-x="333" d="M79 352 L253 352 L253 501 L79 501 L79 352 Z M89 149 L23 -119 L159 -119 L277 149 L89 149 Z " />
<glyph glyph-name="less" unicode="&#x3c;" horiz-adv-x="660" d="M61 196 L599 -14 L599 138 L228 269 L599 401 L599 551 L61 342 L61 196 Z " />
<glyph glyph-name="equal" unicode="&#x3d;" horiz-adv-x="660" d="M61 317 L599 317 L599 458 L61 458 L61 317 Z M61 80 L599 80 L599 221 L61 221 L61 80 Z " />
<glyph glyph-name="greater" unicode="&#x3e;" horiz-adv-x="660" d="M599 196 L599 342 L62 551 L62 401 L432 269 L62 138 L62 -14 L599 196 Z " />
<glyph glyph-name="question" unicode="&#x3f;" horiz-adv-x="556" d="M74 595 C100 603 130 612 184 612 C276 612 316 572 316 521 C316 486 298 467 273 441 L196 361 C159 323 158 314 159 289 L159 193 L316 193 L316 247 C316 287 316 310 376 353 C518 453 518 499 518 547 C518 711 353 740 234 740 C181 740 129 735 74 725 L74 595 Z M148 0 L324 0 L324 149 L148 149 L148 0 Z " />
<glyph glyph-name="at" unicode="&#x40;" horiz-adv-x="740" d="M676 144 C598 83 503 45 404 45 C193 45 75 188 75 352 C75 532 209 681 414 681 C556 681 690 603 690 443 C690 326 620 247 575 247 C564 247 538 252 538 285 C538 295 548 330 554 353 L613 556 L504 556 L492 511 C474 552 430 573 385 573 C268 573 178 450 178 328 C178 227 239 169 319 169 C363 169 417 188 454 255 C458 188 516 175 544 175 C671 175 761 301 761 438 C761 627 603 743 413 743 C181 743 3 572 3 355 C3 163 149 -17 399 -17 C514 -17 606 18 713 95 L676 144 Z M459 449 C459 410 426 318 414 295 C395 258 375 248 355 248 C332 248 307 264 307 316 C307 377 349 494 415 494 C434 494 459 481 459 449 L459 449 Z " />
<glyph glyph-name="A" unicode="A" horiz-adv-x="833" d="M8 0 L208 0 L257 145 L546 145 L596 0 L822 0 L537 722 L293 722 L8 0 Z M304 278 L404 581 L407 581 L500 278 L304 278 Z " />
<glyph glyph-name="B" unicode="B" horiz-adv-x="722" d="M61 0 L380 0 C445 0 518 0 575 30 C654 72 675 138 675 194 C675 342 546 365 501 373 L501 375 C537 384 655 411 655 539 C655 603 623 642 600 663 C534 722 441 722 350 722 L61 722 L61 0 Z M255 591 L364 591 C385 591 407 591 429 574 C449 558 457 532 457 510 C457 479 442 453 419 440 C402 431 381 431 349 431 L255 431 L255 591 Z M256 303 L361 303 C388 303 470 303 470 216 C470 132 390 132 367 132 L256 132 L256 303 Z " />
<glyph glyph-name="C" unicode="C" horiz-adv-x="778" d="M732 495 C731 522 730 587 672 649 C615 709 526 737 409 737 C304 737 209 715 135 631 C67 554 44 455 44 356 C44 281 58 166 137 82 C217 -2 341 -14 411 -14 C505 -14 735 5 736 231 L528 231 C524 203 513 126 407 126 C252 126 251 308 251 352 C251 484 288 595 409 595 C466 595 517 568 526 495 L732 495 Z " />
<glyph glyph-name="D" unicode="D" horiz-adv-x="833" d="M73 0 L380 0 C430 0 518 0 592 28 C738 85 789 203 789 363 C789 470 760 589 653 662 C578 713 464 722 378 722 L73 722 L73 0 Z M278 585 L357 584 C418 584 582 584 582 365 C582 197 497 140 364 139 L278 139 L278 585 Z " />
<glyph glyph-name="E" unicode="E" horiz-adv-x="667" d="M69 0 L619 0 L619 140 L267 140 L267 294 L591 294 L591 432 L267 432 L267 582 L611 582 L611 720 L69 720 L69 0 Z " />
<glyph glyph-name="F" unicode="F" horiz-adv-x="611" d="M71 0 L270 0 L270 274 L560 274 L560 413 L270 413 L270 581 L582 581 L582 720 L71 720 L71 0 Z " />
<glyph glyph-name="G" unicode="G" horiz-adv-x="833" d="M764 506 C763 541 762 601 710 656 C652 716 559 740 446 740 C359 740 233 725 147 644 C65 565 39 444 39 357 C39 242 81 128 173 59 C257 -4 365 -16 443 -16 C550 -16 657 -1 762 24 L762 410 L421 410 L421 273 L574 273 L574 133 C537 126 500 121 463 121 C342 121 249 192 249 361 C249 482 299 602 436 602 C491 602 550 581 561 506 L764 506 Z " />
<glyph glyph-name="H" unicode="H" horiz-adv-x="778" d="M65 0 L266 0 L266 292 L508 292 L508 0 L711 0 L711 722 L508 722 L508 440 L267 440 L267 722 L65 722 L65 0 Z " />
<glyph glyph-name="I" unicode="I" horiz-adv-x="333" d="M60 0 L266 0 L266 722 L60 722 L60 0 Z " />
<glyph glyph-name="J" unicode="J" horiz-adv-x="611" d="M5 231 C5 195 5 129 38 82 C92 5 185 -16 271 -16 C338 -16 435 -2 498 70 C544 124 547 214 547 244 L547 722 L344 722 L344 237 C344 199 344 129 271 129 C203 129 204 201 204 231 L5 231 Z " />
<glyph glyph-name="K" unicode="K" horiz-adv-x="778" d="M76 0 L279 0 L279 384 L519 0 L767 0 L498 404 L747 722 L510 722 L279 405 L279 722 L76 722 L76 0 Z " />
<glyph glyph-name="L" unicode="L" horiz-adv-x="611" d="M67 0 L594 0 L594 142 L270 142 L270 722 L67 722 L67 0 Z " />
<glyph glyph-name="M" unicode="M" horiz-adv-x="1000" d="M63 0 L236 0 L231 611 L396 0 L576 0 L747 606 L738 0 L927 0 L926 723 L612 722 L498 233 L378 722 L63 722 L63 0 Z " />
<glyph glyph-name="N" unicode="N" horiz-adv-x="833" d="M67 0 L243 0 L241 561 L490 0 L760 0 L760 722 L585 722 L587 184 L343 722 L67 722 L67 0 Z " />
<glyph glyph-name="O" unicode="O" horiz-adv-x="833" d="M40 358 C40 89 219 -17 411 -17 C583 -17 787 71 787 359 C787 535 709 742 421 742 C368 742 230 734 139 642 C48 550 40 406 40 358 L40 358 Z M246 359 C246 483 282 597 414 597 C458 597 505 585 534 545 C556 513 580 463 580 362 C580 262 556 130 413 130 C280 130 246 244 246 359 L246 359 Z " />
<glyph glyph-name="P" unicode="P" horiz-adv-x="722" d="M73 0 L274 0 L274 260 L404 261 C443 261 530 261 586 292 C614 307 695 362 695 489 C695 583 654 648 593 685 C534 722 461 722 405 722 L73 722 L73 0 Z M274 588 L362 588 C420 588 491 583 491 495 C491 398 412 398 363 398 L274 398 L274 588 Z " />
<glyph glyph-name="Q" unicode="Q" horiz-adv-x="833" d="M820 130 C724 134 667 119 647 113 C685 139 787 207 787 388 C787 451 775 557 689 644 C633 700 559 741 420 741 C329 741 176 719 98 581 C57 509 42 427 42 344 C42 137 176 -9 381 -9 C402 -9 508 -3 532 -2 C589 1 613 2 820 1 L820 130 Z M246 359 C246 483 282 597 414 597 C459 597 506 585 534 545 C558 510 580 457 580 361 C580 257 553 130 413 130 C280 130 246 244 246 359 L246 359 Z " />
<glyph glyph-name="R" unicode="R" horiz-adv-x="722" d="M65 0 L266 0 L266 282 L350 282 C440 282 443 250 452 163 C459 99 464 44 476 0 L693 0 C676 51 666 129 659 178 C643 289 635 351 495 355 L495 359 C515 362 559 367 605 396 C639 417 671 451 671 530 C671 608 643 648 621 670 C578 714 529 722 399 722 L65 722 L65 0 Z M266 589 L341 589 C399 589 477 589 477 500 C477 477 468 432 424 418 C407 412 385 412 341 412 L266 412 L266 589 Z " />
<glyph glyph-name="S" unicode="S" horiz-adv-x="722" d="M42 230 C43 199 44 128 97 70 C163 -4 284 -16 359 -16 C540 -16 678 56 678 217 C678 370 564 400 468 425 L333 460 C304 468 260 481 260 534 C260 577 297 610 355 610 C451 610 450 532 450 510 L653 510 C652 587 640 740 358 740 C142 740 54 631 54 514 C54 363 183 329 233 316 L410 270 C458 257 472 234 472 200 C472 118 382 118 365 118 C246 118 244 201 243 230 L42 230 Z " />
<glyph glyph-name="T" unicode="T" horiz-adv-x="667" d="M230 0 L432 0 L432 579 L657 579 L657 722 L10 722 L10 579 L230 579 L230 0 Z " />
<glyph glyph-name="U" unicode="U" horiz-adv-x="833" d="M72 722 L71 311 C71 193 72 -19 413 -19 C504 -19 633 -2 703 84 C748 137 759 224 759 304 L759 722 L564 722 L564 300 C564 228 547 125 420 125 C371 125 324 144 297 184 C277 214 274 254 274 293 L274 722 L72 722 Z " />
<glyph glyph-name="V" unicode="V" horiz-adv-x="778" d="M264 0 L503 0 L766 722 L567 722 L394 199 L230 722 L9 722 L264 0 Z " />
<glyph glyph-name="W" unicode="W" horiz-adv-x="1000" d="M131 0 L370 0 L503 535 L628 0 L868 0 L992 722 L811 722 L744 200 L637 722 L392 722 L274 196 L207 722 L8 722 L131 0 Z " />
<glyph glyph-name="X" unicode="X" horiz-adv-x="833" d="M402 257 L560 0 L816 0 L546 380 L803 722 L573 722 L427 498 L286 722 L28 722 L282 376 L8 0 L242 0 L402 257 Z " />
<glyph glyph-name="Y" unicode="Y" horiz-adv-x="778" d="M6 722 L281 264 L281 0 L483 0 L483 255 L765 722 L559 722 L396 419 L238 722 L6 722 Z " />
<glyph glyph-name="Z" unicode="Z" horiz-adv-x="667" d="M17 0 L633 0 L633 140 L253 140 L625 566 L625 720 L37 720 L37 581 L377 581 L17 159 L17 0 Z " />
<glyph glyph-name="bracketleft" unicode="&#x5b;" horiz-adv-x="333" d="M59 -123 L337 -123 L337 -19 L200 -19 L200 653 L337 653 L337 755 L59 755 L59 -123 Z " />
<glyph glyph-name="backslash" unicode="&#x5c;" horiz-adv-x="278" d="M188 -16 L314 -16 L94 727 L-31 727 L188 -16 Z " />
<glyph glyph-name="bracketright" unicode="&#x5d;" horiz-adv-x="333" d="M-14 -123 L264 -123 L264 755 L-14 755 L-14 653 L122 653 L122 -19 L-14 -19 L-14 -123 Z " />
<glyph glyph-name="asciicircum" unicode="&#x5e;" horiz-adv-x="660" d="M84 286 L234 286 L329 551 L426 286 L576 286 L394 722 L266 722 L84 286 Z " />
<glyph glyph-name="underscore" unicode="&#x5f;" horiz-adv-x="500" d="M0 -125 L500 -125 L500 -75 L0 -75 L0 -125 Z " />
<glyph glyph-name="grave" unicode="&#x60;" horiz-adv-x="333" d="M136 581 L265 581 L158 726 L-50 726 L136 581 Z " />
<glyph glyph-name="a" unicode="a" horiz-adv-x="611" d="M560 0 C551 50 550 60 550 96 L550 330 C550 384 538 431 506 462 C453 514 357 520 312 520 C221 520 143 497 104 457 C66 418 66 375 65 352 L245 352 C244 409 277 428 312 428 C369 428 376 378 375 324 C159 333 32 283 32 146 C32 57 86 -10 209 -10 C312 -10 351 38 374 72 C374 40 376 18 380 0 L560 0 Z M374 237 C375 216 375 175 360 143 C341 103 306 95 286 95 C241 95 217 126 217 163 C217 235 294 236 374 237 L374 237 Z " />
<glyph glyph-name="b" unicode="b" horiz-adv-x="667" d="M61 722 L61 125 C61 122 60 57 55 0 L231 0 L237 74 C299 -8 371 -11 404 -11 C442 -11 506 -5 562 56 C604 101 627 156 627 254 C627 308 622 363 595 410 C563 464 505 515 409 515 C391 515 302 514 250 449 L250 722 L61 722 Z M244 254 C244 291 250 406 343 406 C427 406 433 306 433 255 C433 222 433 102 339 102 C250 102 244 221 244 254 L244 254 Z " />
<glyph glyph-name="c" unicode="c" horiz-adv-x="611" d="M574 326 C572 355 568 401 525 447 C467 510 376 519 322 519 C181 519 42 452 42 254 C42 73 164 -12 324 -12 C476 -12 578 69 577 196 L387 196 C387 158 383 94 319 94 C272 94 236 124 236 254 C236 342 252 412 321 412 C370 412 388 373 388 326 L574 326 Z " />
<glyph glyph-name="d" unicode="d" horiz-adv-x="667" d="M415 722 L415 443 C382 478 346 513 262 513 C199 513 143 494 97 445 C63 408 34 358 34 251 C34 128 83 -12 256 -12 C367 -12 406 45 426 74 L430 0 L608 0 C605 42 603 83 603 125 L603 722 L415 722 Z M322 99 C239 99 229 202 229 250 C229 297 240 403 324 403 C390 403 417 337 417 253 C417 167 390 99 322 99 L322 99 Z " />
<glyph glyph-name="e" unicode="e" horiz-adv-x="611" d="M571 213 C571 301 565 349 543 392 C509 463 444 520 304 520 C119 520 37 411 37 243 C37 77 131 -11 306 -11 C436 -11 554 38 568 164 L393 164 C388 117 357 91 307 91 C211 91 211 186 211 213 L571 213 Z M213 315 C215 339 222 420 304 420 C386 420 392 344 394 315 L213 315 Z " />
<glyph glyph-name="f" unicode="f" horiz-adv-x="444" d="M427 719 C406 721 367 725 316 725 C119 725 117 620 120 500 L20 500 L20 378 L117 378 L117 0 L301 0 L301 378 L422 378 L422 500 L301 500 C300 542 298 604 375 604 C400 604 419 600 427 598 L427 719 Z " />
<glyph glyph-name="g" unicode="g" horiz-adv-x="667" d="M428 505 L428 429 C403 469 359 514 262 514 C109 514 37 401 37 265 C37 82 154 16 260 16 C289 16 371 21 422 97 L422 31 C422 -23 416 -91 322 -91 C268 -91 241 -65 240 -27 L63 -27 C64 -53 65 -100 109 -139 C166 -190 261 -198 318 -198 C421 -198 482 -173 525 -142 C593 -94 605 -23 605 37 L605 505 L428 505 Z M419 269 C419 233 416 127 326 127 C243 127 231 214 231 267 C231 351 265 409 328 409 C419 409 419 295 419 269 L419 269 Z " />
<glyph glyph-name="h" unicode="h" horiz-adv-x="667" d="M65 0 L253 0 L253 227 C253 269 253 301 258 324 C263 344 277 394 337 394 C415 394 415 312 415 270 L415 0 L602 0 L602 292 C602 362 602 417 552 462 C511 500 461 513 412 513 C321 513 275 467 255 447 L255 722 L65 722 L65 0 Z " />
<glyph glyph-name="i" unicode="i" horiz-adv-x="333" d="M67 586 L259 586 L259 720 L67 720 L67 586 Z M69 0 L257 0 L257 502 L69 502 L69 0 Z " />
<glyph glyph-name="j" unicode="j" horiz-adv-x="333" d="M5 -194 C35 -196 48 -196 72 -196 C215 -196 262 -152 262 -34 L262 502 L72 502 L72 10 C72 -36 72 -79 5 -71 L5 -194 Z M71 586 L263 586 L263 720 L71 720 L71 586 Z " />
<glyph glyph-name="k" unicode="k" horiz-adv-x="667" d="M74 0 L258 0 L258 279 L437 0 L663 0 L467 290 L638 502 L430 502 L258 280 L258 722 L74 722 L74 0 Z " />
<glyph glyph-name="l" unicode="l" horiz-adv-x="333" d="M69 0 L257 0 L257 722 L69 722 L69 0 Z " />
<glyph glyph-name="m" unicode="m" horiz-adv-x="1000" d="M61 0 L249 0 L249 286 C249 342 265 395 329 395 C404 395 404 331 404 286 L404 0 L592 0 L592 282 C592 325 596 341 602 353 C619 386 647 395 672 395 C747 395 747 335 747 284 L747 0 L935 0 L935 275 C935 333 935 394 908 437 C889 466 844 515 750 515 C698 515 620 499 573 421 C540 509 444 514 415 514 C339 514 281 484 245 419 L243 502 L57 502 C57 487 61 400 61 388 L61 0 Z " />
<glyph glyph-name="n" unicode="n" horiz-adv-x="667" d="M64 0 L251 0 L251 288 C251 306 251 394 335 394 C412 394 412 323 412 288 L412 0 L600 0 L600 304 C600 373 600 513 416 513 C312 513 272 463 249 425 L247 502 L59 502 L64 395 L64 0 Z " />
<glyph glyph-name="o" unicode="o" horiz-adv-x="667" d="M38 253 C38 192 52 117 110 62 C159 15 231 -12 342 -12 C445 -12 507 19 549 60 C601 112 622 186 622 259 C622 437 495 519 332 519 C133 519 38 407 38 253 L38 253 Z M233 252 C233 327 249 412 332 412 C407 412 428 339 428 252 C428 182 412 93 330 93 C313 93 279 95 257 133 C236 170 233 219 233 252 L233 252 Z " />
<glyph glyph-name="p" unicode="p" horiz-adv-x="667" d="M56 502 C57 481 58 475 60 420 L60 -190 L248 -190 L248 60 C270 35 310 -10 399 -10 C513 -10 623 66 623 261 C623 467 491 515 407 515 C302 515 260 456 242 431 L240 502 L56 502 Z M244 253 C244 282 244 407 340 407 C420 407 430 311 430 263 C430 188 414 102 335 102 C249 102 244 213 244 253 L244 253 Z " />
<glyph glyph-name="q" unicode="q" horiz-adv-x="667" d="M418 429 C398 455 354 513 250 513 C102 513 32 387 32 246 C32 62 144 -10 252 -10 C349 -10 390 40 410 64 L410 -190 L597 -190 L597 420 C597 426 597 441 598 447 C601 481 601 485 602 502 L420 502 L418 429 Z M315 98 C237 98 227 202 227 250 C227 305 236 404 318 404 C407 404 412 297 412 253 C412 208 404 98 315 98 L315 98 Z " />
<glyph glyph-name="r" unicode="r" horiz-adv-x="444" d="M67 0 L254 0 L254 213 C254 267 270 348 385 348 C398 348 403 347 425 345 L425 506 C382 507 291 510 248 398 L245 502 L62 502 L67 395 L67 0 Z " />
<glyph glyph-name="s" unicode="s" horiz-adv-x="556" d="M29 163 C27 1 174 -14 276 -14 C320 -14 517 -14 517 156 C517 254 447 281 399 294 L265 331 C235 339 214 350 214 379 C214 410 241 423 270 423 C300 423 314 412 322 396 C329 381 329 362 329 347 L507 347 C499 487 386 516 278 516 C204 516 144 504 100 473 C67 451 40 409 40 359 C40 256 131 231 162 223 L264 194 C306 183 335 173 335 138 C335 116 321 87 278 87 C246 87 230 102 223 118 C215 135 215 154 215 163 L29 163 Z " />
<glyph glyph-name="t" unicode="t" horiz-adv-x="444" d="M292 500 L292 650 L111 578 L111 500 L13 500 L13 380 L108 380 L108 139 C108 42 138 -8 288 -8 C352 -8 385 -3 410 1 L410 119 C387 116 378 116 363 116 C291 116 291 144 290 206 L290 380 L411 380 L411 500 L292 500 Z " />
<glyph glyph-name="u" unicode="u" horiz-adv-x="667" d="M64 502 L64 219 C64 123 75 -9 249 -9 C293 -9 356 -3 407 78 L411 0 L596 0 C595 39 595 44 593 87 L593 502 L405 502 L405 211 C405 183 405 111 326 111 C251 111 251 181 251 209 L251 502 L64 502 Z " />
<glyph glyph-name="v" unicode="v" horiz-adv-x="611" d="M200 0 L405 0 L595 502 L418 502 L311 150 L211 502 L9 502 L200 0 Z " />
<glyph glyph-name="w" unicode="w" horiz-adv-x="944" d="M160 0 L366 0 L465 350 L557 0 L767 0 L925 502 L757 502 L668 148 L580 502 L370 502 L281 146 L199 502 L7 502 L160 0 Z " />
<glyph glyph-name="x" unicode="x" horiz-adv-x="611" d="M181 262 L12 0 L206 0 L289 186 L368 0 L590 0 L420 262 L574 502 L382 502 L315 348 L251 502 L32 502 L181 262 Z " />
<glyph glyph-name="y" unicode="y" horiz-adv-x="611" d="M595 502 L420 502 L311 153 L211 502 L8 502 L218 -16 L147 -190 L322 -190 L595 502 Z " />
<glyph glyph-name="z" unicode="z" horiz-adv-x="556" d="M40 0 L507 0 L507 119 L251 119 L495 377 L495 501 L51 501 L51 380 L281 380 L40 127 L40 0 Z " />
<glyph glyph-name="braceleft" unicode="&#x7b;" horiz-adv-x="333" d="M-18 269 C95 249 96 189 96 140 L96 117 C96 3 116 -30 148 -59 C193 -99 254 -118 351 -123 L351 -33 C241 -29 241 54 241 113 L241 135 C241 173 240 228 199 268 C162 306 117 311 77 316 C105 318 160 322 197 364 C229 398 241 433 241 497 L241 519 C241 579 241 658 351 665 L351 755 C102 742 96 625 96 515 L96 492 C96 451 89 379 -18 363 L-18 269 Z " />
<glyph glyph-name="bar" unicode="&#x7c;" horiz-adv-x="278" d="M68 750 L68 -250 L210 -250 L210 750 L68 750 Z " />
<glyph glyph-name="braceright" unicode="&#x7d;" horiz-adv-x="333" d="M351 363 C238 383 237 443 237 492 L237 515 C237 629 217 662 185 691 C140 731 79 750 -18 755 L-18 665 C92 661 92 578 92 519 L92 497 C92 459 93 404 134 363 C171 326 216 321 256 316 C228 314 173 310 136 268 C104 234 92 199 92 135 L92 113 C92 53 92 -26 -18 -33 L-18 -123 C231 -110 237 7 237 117 L237 140 C237 181 244 253 351 269 L351 363 Z " />
<glyph glyph-name="asciitilde" unicode="&#x7e;" horiz-adv-x="660" d="M143 172 C148 204 166 229 199 229 C221 229 265 215 273 213 C354 187 418 167 452 167 C559 167 601 276 608 368 L516 368 C512 348 506 311 458 311 C431 311 393 323 353 335 C245 368 225 371 207 371 C128 371 59 293 52 172 L143 172 Z " />
<glyph glyph-name="uni00A0" unicode="&#xa0;" horiz-adv-x="333" d="" />
<glyph glyph-name="exclamdown" unicode="&#xa1;" horiz-adv-x="444" d="M150 324 L114 -183 L331 -183 L294 324 L150 324 Z M310 389 L310 539 L130 539 L130 389 L310 389 Z " />
<glyph glyph-name="cent" unicode="&#xa2;" horiz-adv-x="667" d="M329 517 C181 506 63 444 63 261 C63 148 98 63 205 13 L160 -156 L299 -156 L343 -15 C410 -17 472 0 519 35 C566 70 601 124 604 194 L409 194 C405 155 398 115 338 115 C268 115 258 195 258 251 C258 307 268 387 338 387 C394 387 407 354 405 324 L600 324 C600 404 538 469 466 498 L506 644 L367 644 L329 517 Z " />
<glyph glyph-name="sterling" unicode="&#xa3;" horiz-adv-x="667" d="M34 0 L611 0 L611 117 L295 117 L295 337 L440 337 L440 451 L295 451 C294 540 294 627 380 627 C460 627 460 555 460 519 L645 519 C644 583 641 742 384 742 C109 742 108 556 108 451 L12 451 L12 337 L108 337 L108 117 L34 117 L34 0 Z " />
<glyph glyph-name="currency" unicode="&#xa4;" horiz-adv-x="660" d="M69 172 L153 88 L220 155 C243 143 278 126 331 126 C385 126 418 143 441 155 L508 88 L592 172 L525 239 C534 255 554 293 554 349 C554 403 534 442 525 460 L591 527 L507 611 L441 544 C419 555 385 573 330 573 C278 573 243 556 220 544 L153 611 L69 527 L136 460 C125 438 107 402 107 349 C107 295 124 262 136 239 L69 172 Z M330 448 C384 448 429 405 429 350 C429 295 385 251 330 251 C275 251 231 295 231 350 C231 404 276 448 330 448 L330 448 Z " />
<glyph glyph-name="yen" unicode="&#xa5;" horiz-adv-x="667" d="M425 0 L425 120 L613 120 L613 250 L434 250 L464 304 L613 304 L613 434 L519 434 L658 692 L457 692 L330 419 L210 692 L9 692 L143 434 L54 434 L54 304 L203 304 L233 250 L54 250 L54 120 L235 120 L235 0 L425 0 Z " />
<glyph glyph-name="brokenbar" unicode="&#xa6;" horiz-adv-x="278" d="M68 675 L68 325 L210 325 L210 675 L68 675 Z M68 175 L68 -175 L210 -175 L210 175 L68 175 Z " />
<glyph glyph-name="section" unicode="&#xa7;" horiz-adv-x="667" d="M122 2 C205 -20 319 -20 327 -20 C368 -20 563 -20 563 130 C563 196 522 222 481 244 C560 284 575 336 575 379 C575 453 536 493 472 515 L359 554 C326 566 304 576 304 599 C304 624 336 634 376 634 C403 634 446 631 502 612 L502 726 C470 730 382 742 326 742 C275 742 114 738 114 609 C114 528 180 501 200 493 C120 453 90 410 90 348 C90 293 114 251 204 220 L301 186 C344 171 366 159 366 136 C366 111 347 91 263 91 C230 91 181 95 122 115 L122 2 Z M372 282 C317 303 262 327 262 379 C262 400 271 421 310 454 C367 427 408 408 408 361 C408 330 387 300 372 282 L372 282 Z " />
<glyph glyph-name="dieresis" unicode="&#xa8;" horiz-adv-x="333" d="M212 581 L383 581 L383 726 L212 726 L212 581 Z M-51 581 L120 581 L120 726 L-51 726 L-51 581 Z " />
<glyph glyph-name="copyright" unicode="&#xa9;" horiz-adv-x="800" d="M414 742 C208 742 34 576 34 363 C34 153 205 -17 414 -17 C624 -17 793 154 793 363 C793 575 621 742 414 742 L414 742 Z M414 677 C587 677 727 536 727 363 C727 191 588 49 414 49 C240 49 100 190 100 363 C100 538 242 677 414 677 L414 677 Z M589 442 C588 464 588 497 556 534 C524 572 474 586 415 586 C364 586 310 576 268 523 C232 478 219 419 219 358 C219 309 227 244 269 194 C295 163 338 137 417 137 C510 137 591 174 591 284 L479 284 C477 265 471 220 417 220 C332 220 330 322 330 356 C330 431 348 501 415 501 C446 501 473 486 478 442 L589 442 Z " />
<glyph glyph-name="ordfeminine" unicode="&#xaa;" horiz-adv-x="367" d="M138 524 C138 543 149 553 168 556 C186 561 209 562 222 562 C222 530 225 488 177 488 C153 488 138 502 138 524 L138 524 Z M226 427 L359 427 C354 463 352 476 352 489 L352 644 C352 711 272 737 205 737 C169 737 127 734 93 719 C60 705 36 681 36 644 L153 644 C152 652 166 667 194 667 C221 667 223 642 223 632 L184 632 C105 632 9 591 8 518 C7 449 66 418 139 418 C179 418 211 439 220 452 L222 452 L226 427 Z " />
<glyph glyph-name="guillemotleft" unicode="&#xab;" horiz-adv-x="667" d="M181 449 L57 255 L182 59 L336 59 L216 253 L336 449 L181 449 Z M449 449 L325 255 L450 59 L604 59 L485 253 L604 449 L449 449 Z " />
<glyph glyph-name="logicalnot" unicode="&#xac;" horiz-adv-x="660" d="M61 317 L453 317 L453 80 L599 80 L599 458 L61 458 L61 317 Z " />
<glyph glyph-name="uni00AD" unicode="&#xad;" horiz-adv-x="333" d="M22 323 L22 204 L306 204 L306 323 L22 323 Z " />
<glyph glyph-name="registered" unicode="&#xae;" horiz-adv-x="800" d="M399 742 C193 742 21 576 21 362 C21 154 189 -16 399 -16 C609 -16 779 154 779 362 C779 576 605 742 399 742 L399 742 Z M399 677 C572 677 714 537 714 362 C714 192 574 50 399 50 C228 50 87 190 87 362 C87 540 230 677 399 677 L399 677 Z M225 152 L343 152 L343 316 L391 316 C443 316 445 298 451 250 C455 206 459 178 465 152 L591 152 C583 178 583 182 569 276 C561 318 557 358 477 360 L477 362 C559 372 579 418 579 462 C579 572 491 572 421 572 L225 572 L225 152 Z M343 496 L387 496 C421 496 465 496 465 444 C465 392 425 392 387 392 L343 392 L343 496 Z " />
<glyph glyph-name="macron" unicode="&#xaf;" horiz-adv-x="333" d="M-27 614 L355 614 L355 690 L-27 690 L-27 614 Z " />
<glyph glyph-name="degree" unicode="&#xb0;" horiz-adv-x="400" d="M350 557 C350 639 282 707 200 707 C117 707 49 639 50 557 C50 474 117 407 200 407 C282 407 350 474 350 557 L350 557 Z M130 554 C129 594 158 627 198 627 C239 627 270 594 270 554 C270 512 239 487 199 487 C158 487 131 512 130 554 L130 554 Z " />
<glyph glyph-name="plusminus" unicode="&#xb1;" horiz-adv-x="660" d="M259 136 L402 136 L402 283 L599 283 L599 423 L402 423 L402 578 L259 578 L259 423 L61 423 L61 283 L259 283 L259 136 Z M61 -40 L599 -40 L599 101 L61 101 L61 -40 Z " />
<glyph glyph-name="twosuperior" unicode="&#xb2;" horiz-adv-x="400" d="M177 366 L177 367 C184 373 390 499 390 594 C390 679 301 707 219 707 C124 707 36 677 32 583 L159 583 C159 601 178 624 207 624 C242 624 257 612 255 588 C250 515 74 413 23 361 L23 283 L391 283 L391 366 L177 366 Z " />
<glyph glyph-name="threesuperior" unicode="&#xb3;" horiz-adv-x="400" d="M148 456 C195 456 269 466 269 403 C269 367 241 357 207 357 C191 357 173 359 163 368 C155 376 147 387 147 403 L16 403 C28 301 110 274 212 274 C293 274 404 302 404 394 C404 458 356 493 291 500 L291 502 C345 510 395 548 395 601 C395 688 285 707 211 707 C125 707 29 675 27 588 L159 588 C159 607 182 624 209 624 C235 624 260 613 260 594 C260 532 199 539 148 539 L148 456 Z " />
<glyph glyph-name="acute" unicode="&#xb4;" horiz-adv-x="333" d="M384 726 L180 726 L69 581 L201 581 L384 726 Z " />
<glyph glyph-name="mu" unicode="&#xb5;" horiz-adv-x="667" d="M94 -213 L228 -213 L228 40 C242 22 265 -8 326 -8 C391 -8 418 33 435 57 L435 0 L551 0 L551 502 L412 502 L412 250 C412 182 408 106 320 106 C241 106 234 165 234 255 L234 502 L94 502 L94 -213 Z " />
<glyph glyph-name="paragraph" unicode="&#xb6;" horiz-adv-x="850" d="M726 610 L726 722 L385 722 C184 722 120 580 120 468 C120 404 139 340 185 296 C231 254 280 248 315 244 L315 -178 L451 -178 L451 610 L540 610 L540 -178 L676 -178 L676 610 L726 610 Z " />
<glyph glyph-name="periodcentered" unicode="&#xb7;" horiz-adv-x="333" d="M72 204 L248 204 L248 353 L72 353 L72 204 Z " />
<glyph glyph-name="cedilla" unicode="&#xb8;" horiz-adv-x="333" d="M139 9 L81 -88 L104 -108 C115 -103 126 -99 142 -99 C165 -99 192 -110 192 -136 C192 -175 152 -175 139 -175 C92 -175 59 -159 46 -153 L33 -198 C79 -217 125 -218 146 -218 C254 -218 282 -169 282 -133 C282 -96 252 -59 184 -59 C168 -59 157 -61 150 -62 L188 9 L139 9 Z " />
<glyph glyph-name="onesuperior" unicode="&#xb9;" horiz-adv-x="400" d="M310 283 L310 692 L200 692 C163 662 118 639 70 625 L70 528 C109 540 146 559 180 580 L180 283 L310 283 Z " />
<glyph glyph-name="ordmasculine" unicode="&#xba;" horiz-adv-x="400" d="M260 578 C260 535 249 488 201 488 C153 488 141 535 141 578 C141 620 153 667 201 667 C249 667 260 620 260 578 L260 578 Z M201 737 C98 737 11 689 11 578 C11 467 98 418 201 418 C303 418 390 467 390 578 C390 689 303 737 201 737 L201 737 Z " />
<glyph glyph-name="guillemotright" unicode="&#xbb;" horiz-adv-x="667" d="M212 59 L336 253 L211 449 L57 449 L176 255 L57 59 L212 59 Z M480 59 L604 253 L479 449 L325 449 L444 255 L325 59 L480 59 Z " />
<glyph glyph-name="onequarter" unicode="&#xbc;" horiz-adv-x="1000" d="M609 163 L709 307 L712 307 L712 163 L609 163 Z M712 0 L842 0 L842 80 L905 80 L905 163 L842 163 L842 415 L688 415 L497 163 L497 80 L712 80 L712 0 Z M345 0 L710 707 L601 707 L236 0 L345 0 Z M335 283 L335 692 L225 692 C188 662 143 639 95 625 L95 528 C134 540 171 559 205 580 L205 283 L335 283 Z " />
<glyph glyph-name="onehalf" unicode="&#xbd;" horiz-adv-x="1000" d="M330 0 L695 707 L586 707 L221 0 L330 0 Z M330 283 L330 692 L220 692 C183 662 138 639 90 625 L90 528 C129 540 166 559 200 580 L200 283 L330 283 Z M696 83 L696 84 C703 90 909 216 909 311 C909 396 820 424 738 424 C643 424 555 394 551 300 L678 300 C678 318 697 341 726 341 C761 341 776 329 774 305 C769 232 593 130 542 78 L542 0 L910 0 L910 83 L696 83 Z " />
<glyph glyph-name="threequarters" unicode="&#xbe;" horiz-adv-x="1000" d="M406 0 L771 707 L662 707 L297 0 L406 0 Z M666 163 L776 317 L779 317 L779 163 L666 163 Z M564 163 L564 80 L779 80 L779 0 L909 0 L909 80 L972 80 L972 163 L909 163 L909 415 L755 415 L564 163 Z M160 456 C207 456 281 466 281 403 C281 367 253 357 219 357 C203 357 185 359 175 368 C167 376 159 387 159 403 L28 403 C40 301 122 274 224 274 C305 274 416 302 416 394 C416 458 368 493 303 500 L303 502 C357 510 407 548 407 601 C407 688 297 707 223 707 C137 707 41 675 39 588 L171 588 C171 607 194 624 221 624 C247 624 272 613 272 594 C272 532 211 539 160 539 L160 456 Z " />
<glyph glyph-name="questiondown" unicode="&#xbf;" horiz-adv-x="556" d="M242 349 L242 300 C242 236 227 221 176 184 C108 132 38 88 38 -5 C38 -167 209 -198 325 -198 C378 -198 433 -193 485 -183 L485 -53 C451 -64 414 -68 378 -68 C323 -68 248 -51 248 18 C248 71 321 139 347 165 C424 241 398 251 402 349 L242 349 Z M412 389 L412 539 L232 539 L232 389 L412 389 Z " />
<glyph glyph-name="Agrave" unicode="&#xc0;" horiz-adv-x="833" d="M8 0 L208 0 L257 145 L546 145 L596 0 L822 0 L537 722 L293 722 L8 0 Z M304 278 L404 581 L407 581 L500 278 L304 278 Z M386 801 L515 801 L408 946 L200 946 L386 801 Z " />
<glyph glyph-name="Aacute" unicode="&#xc1;" horiz-adv-x="833" d="M8 0 L208 0 L257 145 L546 145 L596 0 L822 0 L537 722 L293 722 L8 0 Z M304 278 L404 581 L407 581 L500 278 L304 278 Z M616 946 L412 946 L301 801 L433 801 L616 946 Z " />
<glyph glyph-name="Acircumflex" unicode="&#xc2;" horiz-adv-x="833" d="M8 0 L208 0 L257 145 L546 145 L596 0 L822 0 L537 722 L293 722 L8 0 Z M304 278 L404 581 L407 581 L500 278 L304 278 Z M328 946 L209 801 L339 801 L413 878 L487 801 L617 801 L497 946 L328 946 Z " />
<glyph glyph-name="Atilde" unicode="&#xc3;" horiz-adv-x="833" d="M8 0 L208 0 L257 145 L546 145 L596 0 L822 0 L537 722 L293 722 L8 0 Z M304 278 L404 581 L407 581 L500 278 L304 278 Z M260 801 C262 809 270 841 308 841 C315 841 323 841 351 833 L433 809 C447 805 466 800 483 800 C558 800 616 866 623 944 L542 944 C541 934 538 905 509 905 C499 905 491 907 478 911 L401 933 C374 941 354 947 328 947 C285 947 249 929 224 902 C199 875 184 839 182 801 L260 801 Z " />
<glyph glyph-name="Adieresis" unicode="&#xc4;" horiz-adv-x="833" d="M8 0 L208 0 L257 145 L546 145 L596 0 L822 0 L537 722 L293 722 L8 0 Z M304 278 L404 581 L407 581 L500 278 L304 278 Z M462 801 L633 801 L633 946 L462 946 L462 801 Z M199 801 L370 801 L370 946 L199 946 L199 801 Z " />
<glyph glyph-name="Aring" unicode="&#xc5;" horiz-adv-x="833" d="M8 0 L208 0 L257 145 L546 145 L596 0 L822 0 L537 722 L293 722 L8 0 Z M304 278 L404 581 L407 581 L500 278 L304 278 Z M529 873 C529 935 479 986 417 986 C354 986 305 935 305 873 C305 812 355 761 417 761 C479 761 529 811 529 873 L529 873 Z M470 873 C470 844 446 820 417 820 C387 820 364 844 364 873 C364 903 387 927 417 927 C446 927 470 903 470 873 L470 873 Z " />
<glyph glyph-name="AE" unicode="&#xc6;" horiz-adv-x="1000" d="M502 0 L952 0 L952 140 L680 140 L665 293 L923 293 L923 433 L650 433 L634 582 L952 582 L952 722 L324 722 L7 0 L205 0 L260 143 L486 143 L502 0 Z M435 597 L440 597 L473 283 L311 283 L435 597 Z " />
<glyph glyph-name="Ccedilla" unicode="&#xc7;" horiz-adv-x="778" d="M528 231 C524 203 513 126 407 126 C252 126 251 308 251 352 C251 484 288 595 409 595 C466 595 517 568 526 495 L732 495 C731 522 730 587 672 649 C615 709 526 737 409 737 C304 737 209 715 135 631 C67 554 44 455 44 356 C44 262 66 117 191 39 C243 7 303 -7 368 -12 L323 -88 L346 -108 C357 -103 368 -99 384 -99 C407 -99 434 -110 434 -136 C434 -175 394 -175 381 -175 C335 -175 301 -159 288 -153 L275 -198 C321 -217 367 -218 389 -218 C496 -218 524 -169 524 -133 C524 -96 495 -59 426 -59 C410 -59 399 -61 392 -62 L418 -14 C550 -11 735 27 736 231 L528 231 Z " />
<glyph glyph-name="Egrave" unicode="&#xc8;" horiz-adv-x="667" d="M69 0 L619 0 L619 140 L267 140 L267 294 L591 294 L591 432 L267 432 L267 582 L611 582 L611 720 L69 720 L69 0 Z M303 801 L432 801 L325 946 L117 946 L303 801 Z " />
<glyph glyph-name="Eacute" unicode="&#xc9;" horiz-adv-x="667" d="M69 0 L619 0 L619 140 L267 140 L267 294 L591 294 L591 432 L267 432 L267 582 L611 582 L611 720 L69 720 L69 0 Z M551 946 L347 946 L236 801 L368 801 L551 946 Z " />
<glyph glyph-name="Ecircumflex" unicode="&#xca;" horiz-adv-x="667" d="M69 0 L619 0 L619 140 L267 140 L267 294 L591 294 L591 432 L267 432 L267 582 L611 582 L611 720 L69 720 L69 0 Z M245 946 L126 801 L256 801 L330 878 L404 801 L534 801 L414 946 L245 946 Z " />
<glyph glyph-name="Edieresis" unicode="&#xcb;" horiz-adv-x="667" d="M69 0 L619 0 L619 140 L267 140 L267 294 L591 294 L591 432 L267 432 L267 582 L611 582 L611 720 L69 720 L69 0 Z M379 801 L550 801 L550 946 L379 946 L379 801 Z M116 801 L287 801 L287 946 L116 946 L116 801 Z " />
<glyph glyph-name="Igrave" unicode="&#xcc;" horiz-adv-x="333" d="M60 0 L266 0 L266 722 L60 722 L60 0 Z M136 801 L265 801 L158 946 L-50 946 L136 801 Z " />
<glyph glyph-name="Iacute" unicode="&#xcd;" horiz-adv-x="333" d="M60 0 L266 0 L266 722 L60 722 L60 0 Z M372 946 L168 946 L57 801 L189 801 L372 946 Z " />
<glyph glyph-name="Icircumflex" unicode="&#xce;" horiz-adv-x="333" d="M60 0 L266 0 L266 722 L60 722 L60 0 Z M78 946 L-41 801 L89 801 L163 878 L237 801 L367 801 L247 946 L78 946 Z " />
<glyph glyph-name="Idieresis" unicode="&#xcf;" horiz-adv-x="333" d="M60 0 L266 0 L266 722 L60 722 L60 0 Z M212 801 L383 801 L383 946 L212 946 L212 801 Z M-51 801 L120 801 L120 946 L-51 946 L-51 801 Z " />
<glyph glyph-name="Eth" unicode="&#xd0;" horiz-adv-x="833" d="M67 0 L372 0 C620 0 783 94 783 361 C783 628 620 722 372 722 L67 722 L67 436 L5 436 L5 350 L67 350 L67 0 Z M267 350 L424 350 L424 436 L267 436 L267 582 L361 582 C470 582 573 510 573 361 C573 212 470 140 361 140 L267 140 L267 350 Z " />
<glyph glyph-name="Ntilde" unicode="&#xd1;" horiz-adv-x="833" d="M67 0 L243 0 L241 561 L490 0 L760 0 L760 722 L585 722 L587 184 L343 722 L67 722 L67 0 Z M272 801 C274 809 282 841 320 841 C327 841 335 841 363 833 L445 809 C459 805 478 800 495 800 C570 800 628 866 635 944 L554 944 C553 934 550 905 521 905 C511 905 503 907 490 911 L413 933 C386 941 366 947 340 947 C297 947 261 929 236 902 C211 875 196 839 194 801 L272 801 Z " />
<glyph glyph-name="Ograve" unicode="&#xd2;" horiz-adv-x="833" d="M40 358 C40 89 219 -17 411 -17 C583 -17 787 71 787 359 C787 535 709 742 421 742 C368 742 230 734 139 642 C48 550 40 406 40 358 L40 358 Z M246 359 C246 483 282 597 414 597 C458 597 505 585 534 545 C556 513 580 463 580 362 C580 262 556 130 413 130 C280 130 246 244 246 359 L246 359 Z M386 801 L515 801 L408 946 L200 946 L386 801 Z " />
<glyph glyph-name="Oacute" unicode="&#xd3;" horiz-adv-x="833" d="M40 358 C40 89 219 -17 411 -17 C583 -17 787 71 787 359 C787 535 709 742 421 742 C368 742 230 734 139 642 C48 550 40 406 40 358 L40 358 Z M246 359 C246 483 282 597 414 597 C458 597 505 585 534 545 C556 513 580 463 580 362 C580 262 556 130 413 130 C280 130 246 244 246 359 L246 359 Z M634 946 L430 946 L319 801 L451 801 L634 946 Z " />
<glyph glyph-name="Ocircumflex" unicode="&#xd4;" horiz-adv-x="833" d="M40 358 C40 89 219 -17 411 -17 C583 -17 787 71 787 359 C787 535 709 742 421 742 C368 742 230 734 139 642 C48 550 40 406 40 358 L40 358 Z M246 359 C246 483 282 597 414 597 C458 597 505 585 534 545 C556 513 580 463 580 362 C580 262 556 130 413 130 C280 130 246 244 246 359 L246 359 Z M328 946 L209 801 L339 801 L413 878 L487 801 L617 801 L497 946 L328 946 Z " />
<glyph glyph-name="Otilde" unicode="&#xd5;" horiz-adv-x="833" d="M40 358 C40 89 219 -17 411 -17 C583 -17 787 71 787 359 C787 535 709 742 421 742 C368 742 230 734 139 642 C48 550 40 406 40 358 L40 358 Z M246 359 C246 483 282 597 414 597 C458 597 505 585 534 545 C556 513 580 463 580 362 C580 262 556 130 413 130 C280 130 246 244 246 359 L246 359 Z M260 801 C262 809 270 841 308 841 C315 841 323 841 351 833 L433 809 C447 805 466 800 483 800 C558 800 616 866 623 944 L542 944 C541 934 538 905 509 905 C499 905 491 907 478 911 L401 933 C374 941 354 947 328 947 C285 947 249 929 224 902 C199 875 184 839 182 801 L260 801 Z " />
<glyph glyph-name="Odieresis" unicode="&#xd6;" horiz-adv-x="833" d="M40 358 C40 89 219 -17 411 -17 C583 -17 787 71 787 359 C787 535 709 742 421 742 C368 742 230 734 139 642 C48 550 40 406 40 358 L40 358 Z M246 359 C246 483 282 597 414 597 C458 597 505 585 534 545 C556 513 580 463 580 362 C580 262 556 130 413 130 C280 130 246 244 246 359 L246 359 Z M462 801 L633 801 L633 946 L462 946 L462 801 Z M199 801 L370 801 L370 946 L199 946 L199 801 Z " />
<glyph glyph-name="multiply" unicode="&#xd7;" horiz-adv-x="660" d="M68 105 L166 7 L330 170 L494 7 L592 105 L429 269 L592 433 L494 531 L330 367 L166 531 L68 433 L232 269 L68 105 Z " />
<glyph glyph-name="Oslash" unicode="&#xd8;" horiz-adv-x="833" d="M668 661 C607 711 522 737 417 737 C178 737 43 599 43 361 C43 255 69 170 120 107 L27 13 L93 -56 L191 43 C249 5 325 -15 417 -15 C656 -15 791 123 791 361 C791 452 771 529 732 590 L829 688 L764 759 L668 661 L668 661 Z M575 432 C580 408 581 383 581 358 C581 251 553 125 417 125 C370 125 335 140 311 165 L575 432 Z M265 253 C256 287 253 324 253 358 C253 471 281 597 417 597 C478 597 517 572 541 533 L265 253 Z " />
<glyph glyph-name="Ugrave" unicode="&#xd9;" horiz-adv-x="833" d="M72 722 L71 311 C71 193 72 -19 413 -19 C504 -19 633 -2 703 84 C748 137 759 224 759 304 L759 722 L564 722 L564 300 C564 228 547 125 420 125 C371 125 324 144 297 184 C277 214 274 254 274 293 L274 722 L72 722 Z M386 801 L515 801 L408 946 L200 946 L386 801 Z " />
<glyph glyph-name="Uacute" unicode="&#xda;" horiz-adv-x="833" d="M72 722 L71 311 C71 193 72 -19 413 -19 C504 -19 633 -2 703 84 C748 137 759 224 759 304 L759 722 L564 722 L564 300 C564 228 547 125 420 125 C371 125 324 144 297 184 C277 214 274 254 274 293 L274 722 L72 722 Z M634 946 L430 946 L319 801 L451 801 L634 946 Z " />
<glyph glyph-name="Ucircumflex" unicode="&#xdb;" horiz-adv-x="833" d="M72 722 L71 311 C71 193 72 -19 413 -19 C504 -19 633 -2 703 84 C748 137 759 224 759 304 L759 722 L564 722 L564 300 C564 228 547 125 420 125 C371 125 324 144 297 184 C277 214 274 254 274 293 L274 722 L72 722 Z M328 946 L209 801 L339 801 L413 878 L487 801 L617 801 L497 946 L328 946 Z " />
<glyph glyph-name="Udieresis" unicode="&#xdc;" horiz-adv-x="833" d="M72 722 L71 311 C71 193 72 -19 413 -19 C504 -19 633 -2 703 84 C748 137 759 224 759 304 L759 722 L564 722 L564 300 C564 228 547 125 420 125 C371 125 324 144 297 184 C277 214 274 254 274 293 L274 722 L72 722 Z M462 801 L633 801 L633 946 L462 946 L462 801 Z M199 801 L370 801 L370 946 L199 946 L199 801 Z " />
<glyph glyph-name="Yacute" unicode="&#xdd;" horiz-adv-x="778" d="M6 722 L281 264 L281 0 L483 0 L483 255 L765 722 L559 722 L396 419 L238 722 L6 722 Z M607 946 L403 946 L292 801 L424 801 L607 946 Z " />
<glyph glyph-name="Thorn" unicode="&#xde;" horiz-adv-x="722" d="M73 0 L273 0 L273 156 L405 156 C582 156 698 213 698 388 C698 563 582 620 405 620 L273 620 L273 722 L73 722 L73 0 Z M273 480 L376 480 C455 480 488 441 488 388 C488 335 455 296 376 296 L273 296 L273 480 Z " />
<glyph glyph-name="germandbls" unicode="&#xdf;" horiz-adv-x="778" d="M65 0 L249 0 L249 506 C249 580 278 635 361 635 C425 635 450 600 450 560 C450 522 432 511 403 494 C347 461 332 428 332 393 C332 325 379 301 460 259 C538 218 559 207 559 157 C559 147 558 88 505 88 C491 88 478 94 468 104 C459 114 453 129 453 148 L287 148 C288 123 289 83 323 45 C370 -6 458 -13 507 -13 C664 -13 736 70 736 166 C736 258 684 286 615 323 C522 373 517 383 517 412 C517 440 532 449 573 474 C601 492 632 511 632 571 C632 738 412 738 367 738 C307 738 65 738 65 514 L65 0 Z " />
<glyph glyph-name="agrave" unicode="&#xe0;" horiz-adv-x="611" d="M560 0 C551 50 550 60 550 96 L550 330 C550 384 538 431 506 462 C453 514 357 520 312 520 C221 520 143 497 104 457 C66 418 66 375 65 352 L245 352 C244 409 277 428 312 428 C369 428 376 378 375 324 C159 333 32 283 32 146 C32 57 86 -10 209 -10 C312 -10 351 38 374 72 C374 40 376 18 380 0 L560 0 Z M374 237 C375 216 375 175 360 143 C341 103 306 95 286 95 C241 95 217 126 217 163 C217 235 294 236 374 237 L374 237 Z M293 581 L422 581 L315 726 L107 726 L293 581 Z " />
<glyph glyph-name="aacute" unicode="&#xe1;" horiz-adv-x="611" d="M560 0 C551 50 550 60 550 96 L550 330 C550 384 538 431 506 462 C453 514 357 520 312 520 C221 520 143 497 104 457 C66 418 66 375 65 352 L245 352 C244 409 277 428 312 428 C369 428 376 378 375 324 C159 333 32 283 32 146 C32 57 86 -10 209 -10 C312 -10 351 38 374 72 C374 40 376 18 380 0 L560 0 Z M374 237 C375 216 375 175 360 143 C341 103 306 95 286 95 C241 95 217 126 217 163 C217 235 294 236 374 237 L374 237 Z M499 726 L295 726 L184 581 L316 581 L499 726 Z " />
<glyph glyph-name="acircumflex" unicode="&#xe2;" horiz-adv-x="611" d="M560 0 C551 50 550 60 550 96 L550 330 C550 384 538 431 506 462 C453 514 357 520 312 520 C221 520 143 497 104 457 C66 418 66 375 65 352 L245 352 C244 409 277 428 312 428 C369 428 376 378 375 324 C159 333 32 283 32 146 C32 57 86 -10 209 -10 C312 -10 351 38 374 72 C374 40 376 18 380 0 L560 0 Z M374 237 C375 216 375 175 360 143 C341 103 306 95 286 95 C241 95 217 126 217 163 C217 235 294 236 374 237 L374 237 Z M217 726 L98 581 L228 581 L302 658 L376 581 L506 581 L386 726 L217 726 Z " />
<glyph glyph-name="atilde" unicode="&#xe3;" horiz-adv-x="611" d="M560 0 C551 50 550 60 550 96 L550 330 C550 384 538 431 506 462 C453 514 357 520 312 520 C221 520 143 497 104 457 C66 418 66 375 65 352 L245 352 C244 409 277 428 312 428 C369 428 376 378 375 324 C159 333 32 283 32 146 C32 57 86 -10 209 -10 C312 -10 351 38 374 72 C374 40 376 18 380 0 L560 0 Z M374 237 C375 216 375 175 360 143 C341 103 306 95 286 95 C241 95 217 126 217 163 C217 235 294 236 374 237 L374 237 Z M141 581 C143 589 151 621 189 621 C196 621 204 621 232 613 L314 589 C328 585 347 580 364 580 C439 580 497 646 504 724 L423 724 C422 714 419 685 390 685 C380 685 372 687 359 691 L282 713 C255 721 235 727 209 727 C166 727 130 709 105 682 C80 655 65 619 63 581 L141 581 Z " />
<glyph glyph-name="adieresis" unicode="&#xe4;" horiz-adv-x="611" d="M560 0 C551 50 550 60 550 96 L550 330 C550 384 538 431 506 462 C453 514 357 520 312 520 C221 520 143 497 104 457 C66 418 66 375 65 352 L245 352 C244 409 277 428 312 428 C369 428 376 378 375 324 C159 333 32 283 32 146 C32 57 86 -10 209 -10 C312 -10 351 38 374 72 C374 40 376 18 380 0 L560 0 Z M374 237 C375 216 375 175 360 143 C341 103 306 95 286 95 C241 95 217 126 217 163 C217 235 294 236 374 237 L374 237 Z M351 581 L522 581 L522 726 L351 726 L351 581 Z M88 581 L259 581 L259 726 L88 726 L88 581 Z " />
<glyph glyph-name="aring" unicode="&#xe5;" horiz-adv-x="611" d="M560 0 C551 50 550 60 550 96 L550 330 C550 384 538 431 506 462 C453 514 357 520 312 520 C221 520 143 497 104 457 C66 418 66 375 65 352 L245 352 C244 409 277 428 312 428 C369 428 376 378 375 324 C159 333 32 283 32 146 C32 57 86 -10 209 -10 C312 -10 351 38 374 72 C374 40 376 18 380 0 L560 0 Z M374 237 C375 216 375 175 360 143 C341 103 306 95 286 95 C241 95 217 126 217 163 C217 235 294 236 374 237 L374 237 Z M418 653 C418 715 368 766 306 766 C243 766 194 715 194 653 C194 592 244 541 306 541 C368 541 418 591 418 653 L418 653 Z M359 653 C359 624 335 600 306 600 C276 600 253 624 253 653 C253 683 276 707 306 707 C335 707 359 683 359 653 L359 653 Z " />
<glyph glyph-name="ae" unicode="&#xe6;" horiz-adv-x="944" d="M216 161 C216 196 238 214 266 228 C292 241 330 239 370 239 C370 172 363 95 281 95 C245 95 216 125 216 161 L216 161 Z M547 315 C552 372 568 419 634 422 C663 424 685 411 700 390 C715 369 723 342 723 315 L547 315 Z M294 324 C176 324 23 273 21 151 C20 36 110 -15 223 -15 C314 -15 405 5 450 93 C491 9 569 -15 645 -15 C704 -15 766 -2 812 26 C858 54 899 99 903 164 L723 164 C716 117 685 95 632 95 C561 95 542 148 543 213 L903 213 C903 400 838 517 634 517 C596 517 531 506 483 448 C440 499 371 517 325 517 C269 517 204 511 152 487 C101 464 64 423 65 362 L244 362 C243 382 262 428 308 430 C384 433 370 368 370 324 L294 324 Z " />
<glyph glyph-name="ccedilla" unicode="&#xe7;" horiz-adv-x="611" d="M387 196 C387 158 383 94 319 94 C272 94 236 124 236 254 C236 342 252 412 321 412 C370 412 388 373 388 326 L574 326 C572 355 568 401 525 447 C467 510 376 519 322 519 C182 519 42 452 42 254 C42 90 142 3 284 -10 L238 -88 L261 -108 C273 -103 283 -99 299 -99 C322 -99 349 -110 349 -136 C349 -175 310 -175 296 -175 C250 -175 216 -159 203 -153 L191 -198 C236 -217 283 -218 304 -218 C411 -218 440 -169 440 -133 C440 -96 410 -59 341 -59 C325 -59 314 -61 307 -62 L334 -12 C507 -5 578 92 577 196 L387 196 Z " />
<glyph glyph-name="egrave" unicode="&#xe8;" horiz-adv-x="611" d="M571 213 C571 301 565 349 543 392 C509 463 444 520 304 520 C119 520 37 411 37 243 C37 77 131 -11 306 -11 C436 -11 554 38 568 164 L393 164 C388 117 357 91 307 91 C211 91 211 186 211 213 L571 213 Z M213 315 C215 339 222 420 304 420 C386 420 392 344 394 315 L213 315 Z M293 581 L422 581 L315 726 L107 726 L293 581 Z " />
<glyph glyph-name="eacute" unicode="&#xe9;" horiz-adv-x="611" d="M571 213 C571 301 565 349 543 392 C509 463 444 520 304 520 C119 520 37 411 37 243 C37 77 131 -11 306 -11 C436 -11 554 38 568 164 L393 164 C388 117 357 91 307 91 C211 91 211 186 211 213 L571 213 Z M213 315 C215 339 222 420 304 420 C386 420 392 344 394 315 L213 315 Z M499 726 L295 726 L184 581 L316 581 L499 726 Z " />
<glyph glyph-name="ecircumflex" unicode="&#xea;" horiz-adv-x="611" d="M571 213 C571 301 565 349 543 392 C509 463 444 520 304 520 C119 520 37 411 37 243 C37 77 131 -11 306 -11 C436 -11 554 38 568 164 L393 164 C388 117 357 91 307 91 C211 91 211 186 211 213 L571 213 Z M213 315 C215 339 222 420 304 420 C386 420 392 344 394 315 L213 315 Z M217 726 L98 581 L228 581 L302 658 L376 581 L506 581 L386 726 L217 726 Z " />
<glyph glyph-name="edieresis" unicode="&#xeb;" horiz-adv-x="611" d="M571 213 C571 301 565 349 543 392 C509 463 444 520 304 520 C119 520 37 411 37 243 C37 77 131 -11 306 -11 C436 -11 554 38 568 164 L393 164 C388 117 357 91 307 91 C211 91 211 186 211 213 L571 213 Z M213 315 C215 339 222 420 304 420 C386 420 392 344 394 315 L213 315 Z M351 581 L522 581 L522 726 L351 726 L351 581 Z M88 581 L259 581 L259 726 L88 726 L88 581 Z " />
<glyph glyph-name="igrave" unicode="&#xec;" horiz-adv-x="333" d="M262 0 L262 502 L72 502 L72 0 L262 0 Z M136 581 L265 581 L158 726 L-50 726 L136 581 Z " />
<glyph glyph-name="iacute" unicode="&#xed;" horiz-adv-x="333" d="M262 0 L262 502 L72 502 L72 0 L262 0 Z M384 726 L180 726 L69 581 L201 581 L384 726 Z " />
<glyph glyph-name="icircumflex" unicode="&#xee;" horiz-adv-x="333" d="M262 0 L262 502 L72 502 L72 0 L262 0 Z M78 726 L-41 581 L89 581 L163 658 L237 581 L367 581 L247 726 L78 726 Z " />
<glyph glyph-name="idieresis" unicode="&#xef;" horiz-adv-x="333" d="M262 0 L262 502 L72 502 L72 0 L262 0 Z M212 581 L383 581 L383 726 L212 726 L212 581 Z M-51 581 L120 581 L120 726 L-51 726 L-51 581 Z " />
<glyph glyph-name="eth" unicode="&#xf0;" horiz-adv-x="667" d="M105 616 C132 610 160 602 187 593 L130 545 L188 517 L252 572 C324 537 361 515 408 457 L408 453 C376 471 350 480 290 480 C164 480 42 404 42 232 C42 60 177 -15 334 -15 C492 -15 626 60 626 276 C626 438 567 587 383 682 L422 714 L376 750 L322 705 C279 722 220 737 179 746 L105 616 Z M237 232 C237 299 254 378 334 378 C414 378 431 299 431 232 C431 166 414 87 334 87 C254 87 237 166 237 232 L237 232 Z " />
<glyph glyph-name="ntilde" unicode="&#xf1;" horiz-adv-x="667" d="M64 0 L251 0 L251 288 C251 306 251 394 335 394 C412 394 412 323 412 288 L412 0 L600 0 L600 304 C600 373 600 513 416 513 C312 513 272 463 249 425 L247 502 L59 502 L64 395 L64 0 Z M159 581 C161 589 169 621 207 621 C214 621 222 621 250 613 L332 589 C346 585 365 580 382 580 C457 580 515 646 522 724 L441 724 C440 714 437 685 408 685 C398 685 390 687 377 691 L300 713 C273 721 253 727 227 727 C184 727 148 709 123 682 C98 655 83 619 81 581 L159 581 Z " />
<glyph glyph-name="ograve" unicode="&#xf2;" horiz-adv-x="667" d="M38 253 C38 192 52 117 110 62 C159 15 231 -12 342 -12 C445 -12 507 19 549 60 C601 112 622 186 622 259 C622 437 495 519 332 519 C133 519 38 407 38 253 L38 253 Z M233 252 C233 327 249 412 332 412 C407 412 428 339 428 252 C428 182 412 93 330 93 C313 93 279 95 257 133 C236 170 233 219 233 252 L233 252 Z M303 581 L432 581 L325 726 L117 726 L303 581 Z " />
<glyph glyph-name="oacute" unicode="&#xf3;" horiz-adv-x="667" d="M38 253 C38 192 52 117 110 62 C159 15 231 -12 342 -12 C445 -12 507 19 549 60 C601 112 622 186 622 259 C622 437 495 519 332 519 C133 519 38 407 38 253 L38 253 Z M233 252 C233 327 249 412 332 412 C407 412 428 339 428 252 C428 182 412 93 330 93 C313 93 279 95 257 133 C236 170 233 219 233 252 L233 252 Z M551 726 L347 726 L236 581 L368 581 L551 726 Z " />
<glyph glyph-name="ocircumflex" unicode="&#xf4;" horiz-adv-x="667" d="M38 253 C38 192 52 117 110 62 C159 15 231 -12 342 -12 C445 -12 507 19 549 60 C601 112 622 186 622 259 C622 437 495 519 332 519 C133 519 38 407 38 253 L38 253 Z M233 252 C233 327 249 412 332 412 C407 412 428 339 428 252 C428 182 412 93 330 93 C313 93 279 95 257 133 C236 170 233 219 233 252 L233 252 Z M257 726 L138 581 L268 581 L342 658 L416 581 L546 581 L426 726 L257 726 Z " />
<glyph glyph-name="otilde" unicode="&#xf5;" horiz-adv-x="667" d="M38 253 C38 192 52 117 110 62 C159 15 231 -12 342 -12 C445 -12 507 19 549 60 C601 112 622 186 622 259 C622 437 495 519 332 519 C133 519 38 407 38 253 L38 253 Z M233 252 C233 327 249 412 332 412 C407 412 428 339 428 252 C428 182 412 93 330 93 C313 93 279 95 257 133 C236 170 233 219 233 252 L233 252 Z M165 581 C167 589 175 621 213 621 C220 621 228 621 256 613 L338 589 C352 585 371 580 388 580 C463 580 521 646 528 724 L447 724 C446 714 443 685 414 685 C404 685 396 687 383 691 L306 713 C279 721 259 727 233 727 C190 727 154 709 129 682 C104 655 89 619 87 581 L165 581 Z " />
<glyph glyph-name="odieresis" unicode="&#xf6;" horiz-adv-x="667" d="M38 253 C38 192 52 117 110 62 C159 15 231 -12 342 -12 C445 -12 507 19 549 60 C601 112 622 186 622 259 C622 437 495 519 332 519 C133 519 38 407 38 253 L38 253 Z M233 252 C233 327 249 412 332 412 C407 412 428 339 428 252 C428 182 412 93 330 93 C313 93 279 95 257 133 C236 170 233 219 233 252 L233 252 Z M379 581 L550 581 L550 726 L379 726 L379 581 Z M116 581 L287 581 L287 726 L116 726 L116 581 Z " />
<glyph glyph-name="divide" unicode="&#xf7;" horiz-adv-x="660" d="M61 199 L599 199 L599 339 L61 339 L61 199 Z M251 2 L409 2 L409 153 L251 153 L251 2 Z M251 385 L409 385 L409 536 L251 536 L251 385 Z " />
<glyph glyph-name="oslash" unicode="&#xf8;" horiz-adv-x="667" d="M245 178 C239 200 237 226 237 251 C237 322 254 407 334 407 C367 407 390 392 404 370 L245 178 Z M427 304 C430 286 431 268 431 251 C431 180 414 95 334 95 C308 95 288 104 275 120 L427 304 Z M116 -72 L188 15 C231 -6 281 -15 334 -15 C491 -15 626 66 626 251 C626 339 596 403 546 447 L605 519 L557 556 L495 481 C448 506 392 517 334 517 C177 517 42 436 42 251 C42 155 79 87 136 45 L69 -36 L116 -72 Z " />
<glyph glyph-name="ugrave" unicode="&#xf9;" horiz-adv-x="667" d="M64 502 L64 219 C64 123 75 -9 249 -9 C293 -9 356 -3 407 78 L411 0 L596 0 C595 39 595 44 593 87 L593 502 L405 502 L405 211 C405 183 405 111 326 111 C251 111 251 181 251 209 L251 502 L64 502 Z M303 581 L432 581 L325 726 L117 726 L303 581 Z " />
<glyph glyph-name="uacute" unicode="&#xfa;" horiz-adv-x="667" d="M64 502 L64 219 C64 123 75 -9 249 -9 C293 -9 356 -3 407 78 L411 0 L596 0 C595 39 595 44 593 87 L593 502 L405 502 L405 211 C405 183 405 111 326 111 C251 111 251 181 251 209 L251 502 L64 502 Z M551 726 L347 726 L236 581 L368 581 L551 726 Z " />
<glyph glyph-name="ucircumflex" unicode="&#xfb;" horiz-adv-x="667" d="M64 502 L64 219 C64 123 75 -9 249 -9 C293 -9 356 -3 407 78 L411 0 L596 0 C595 39 595 44 593 87 L593 502 L405 502 L405 211 C405 183 405 111 326 111 C251 111 251 181 251 209 L251 502 L64 502 Z M245 726 L126 581 L256 581 L330 658 L404 581 L534 581 L414 726 L245 726 Z " />
<glyph glyph-name="udieresis" unicode="&#xfc;" horiz-adv-x="667" d="M64 502 L64 219 C64 123 75 -9 249 -9 C293 -9 356 -3 407 78 L411 0 L596 0 C595 39 595 44 593 87 L593 502 L405 502 L405 211 C405 183 405 111 326 111 C251 111 251 181 251 209 L251 502 L64 502 Z M379 581 L550 581 L550 726 L379 726 L379 581 Z M116 581 L287 581 L287 726 L116 726 L116 581 Z " />
<glyph glyph-name="yacute" unicode="&#xfd;" horiz-adv-x="611" d="M595 502 L420 502 L311 153 L211 502 L8 502 L218 -16 L147 -190 L322 -190 L595 502 Z M523 726 L319 726 L208 581 L340 581 L523 726 Z " />
<glyph glyph-name="thorn" unicode="&#xfe;" horiz-adv-x="667" d="M56 -192 L246 -192 L246 60 L248 60 C283 16 334 -15 390 -15 C551 -15 625 111 625 258 C625 390 560 517 411 517 C337 517 286 490 248 431 L246 431 L246 722 L56 722 L56 -192 Z M338 407 C418 407 430 315 430 251 C430 187 418 95 338 95 C258 95 246 187 246 251 C246 315 258 407 338 407 L338 407 Z " />
<glyph glyph-name="ydieresis" unicode="&#xff;" horiz-adv-x="611" d="M595 502 L420 502 L311 153 L211 502 L8 502 L218 -16 L147 -190 L322 -190 L595 502 Z M351 581 L522 581 L522 726 L351 726 L351 581 Z M88 581 L259 581 L259 726 L88 726 L88 581 Z " />
<glyph glyph-name="dotlessi" unicode="&#x131;" horiz-adv-x="333" d="M262 0 L262 502 L72 502 L72 0 L262 0 Z " />
<glyph glyph-name="Lslash" unicode="&#x141;" horiz-adv-x="611" d="M67 0 L594 0 L594 142 L270 142 L270 391 L451 495 L451 592 L270 488 L270 722 L67 722 L67 372 L-12 326 L-12 229 L67 274 L67 0 Z " />
<glyph glyph-name="lslash" unicode="&#x142;" horiz-adv-x="333" d="M69 0 L257 0 L257 397 L345 453 L345 557 L257 502 L257 722 L69 722 L69 382 L-18 324 L-18 220 L69 278 L69 0 Z " />
<glyph glyph-name="OE" unicode="&#x152;" horiz-adv-x="1000" d="M673 582 L942 582 L942 722 L428 722 C358 722 296 721 230 695 C97 643 29 501 29 366 C29 142 177 -1 401 0 L951 0 L951 140 L673 140 L673 293 L921 293 L921 433 L673 433 L673 582 Z M473 134 C454 132 434 128 415 128 C284 128 239 251 239 362 C239 493 284 597 415 597 C434 597 454 593 473 591 L473 134 Z " />
<glyph glyph-name="oe" unicode="&#x153;" horiz-adv-x="1000" d="M233 251 C233 322 250 407 330 407 C410 407 427 322 427 251 C427 180 410 95 330 95 C250 95 233 180 233 251 L233 251 Z M611 315 C616 372 632 419 698 422 C727 424 749 411 764 390 C779 369 787 342 787 315 L611 315 Z M38 251 C38 66 173 -15 330 -15 C392 -15 457 0 522 75 C554 21 621 -15 709 -15 C768 -15 830 -2 876 26 C922 54 963 99 967 164 L787 164 C780 117 749 95 696 95 C625 95 606 148 607 213 L967 213 C967 400 902 517 698 517 C652 517 585 501 536 435 C477 498 403 517 330 517 C173 517 38 436 38 251 L38 251 Z " />
<glyph glyph-name="Scaron" unicode="&#x160;" horiz-adv-x="722" d="M42 230 C43 199 44 128 97 70 C163 -4 284 -16 359 -16 C540 -16 678 56 678 217 C678 370 564 400 468 425 L333 460 C304 468 260 481 260 534 C260 577 297 610 355 610 C451 610 450 532 450 510 L653 510 C652 587 640 740 358 740 C142 740 54 631 54 514 C54 363 183 329 233 316 L410 270 C458 257 472 234 472 200 C472 118 382 118 365 118 C246 118 244 201 243 230 L42 230 Z M361 867 L284 946 L158 946 L277 801 L444 801 L564 946 L437 946 L361 867 Z " />
<glyph glyph-name="scaron" unicode="&#x161;" horiz-adv-x="556" d="M29 163 C27 1 174 -14 276 -14 C320 -14 517 -14 517 156 C517 254 447 281 399 294 L265 331 C235 339 214 350 214 379 C214 410 241 423 270 423 C300 423 314 412 322 396 C329 381 329 362 329 347 L507 347 C499 487 386 516 278 516 C204 516 144 504 100 473 C67 451 40 409 40 359 C40 256 131 231 162 223 L264 194 C306 183 335 173 335 138 C335 116 321 87 278 87 C246 87 230 102 223 118 C215 135 215 154 215 163 L29 163 Z M278 647 L201 726 L75 726 L194 581 L361 581 L481 726 L354 726 L278 647 Z " />
<glyph glyph-name="Ydieresis" unicode="&#x178;" horiz-adv-x="778" d="M6 722 L281 264 L281 0 L483 0 L483 255 L765 722 L559 722 L396 419 L238 722 L6 722 Z M435 801 L606 801 L606 946 L435 946 L435 801 Z M172 801 L343 801 L343 946 L172 946 L172 801 Z " />
<glyph glyph-name="Zcaron" unicode="&#x17d;" horiz-adv-x="667" d="M17 0 L633 0 L633 140 L253 140 L625 566 L625 720 L37 720 L37 581 L377 581 L17 159 L17 0 Z M333 867 L256 946 L130 946 L249 801 L416 801 L536 946 L409 946 L333 867 Z " />
<glyph glyph-name="zcaron" unicode="&#x17e;" horiz-adv-x="556" d="M40 0 L507 0 L507 119 L251 119 L495 377 L495 501 L51 501 L51 380 L281 380 L40 127 L40 0 Z M278 647 L201 726 L75 726 L194 581 L361 581 L481 726 L354 726 L278 647 Z " />
<glyph glyph-name="florin" unicode="&#x192;" horiz-adv-x="667" d="M531 433 L435 433 C455 511 441 594 551 574 L574 700 C543 705 510 707 478 707 C260 707 270 573 236 433 L142 433 L117 303 L214 303 L149 -16 C138 -74 98 -71 56 -68 L32 -190 C67 -197 103 -198 139 -198 C264 -198 329 -152 354 -8 L413 303 L507 303 L531 433 Z " />
<glyph glyph-name="circumflex" unicode="&#x2c6;" horiz-adv-x="333" d="M78 726 L-41 581 L89 581 L163 658 L237 581 L367 581 L247 726 L78 726 Z " />
<glyph glyph-name="caron" unicode="&#x2c7;" horiz-adv-x="333" d="M166 647 L89 726 L-37 726 L82 581 L249 581 L369 726 L242 726 L166 647 Z " />
<glyph glyph-name="uni02C9" unicode="&#x2c9;" horiz-adv-x="333" d="M-27 614 L355 614 L355 690 L-27 690 L-27 614 Z " />
<glyph glyph-name="breve" unicode="&#x2d8;" horiz-adv-x="333" d="M-30 726 C-27 679 -7 633 33 606 C66 583 119 572 164 572 C195 572 270 577 316 629 C349 667 354 702 357 726 L280 726 C272 704 255 657 165 657 C74 657 54 703 52 726 L-30 726 Z " />
<glyph glyph-name="dotaccent" unicode="&#x2d9;" horiz-adv-x="333" d="M81 581 L252 581 L252 726 L81 726 L81 581 Z " />
<glyph glyph-name="ring" unicode="&#x2da;" horiz-adv-x="333" d="M279 653 C279 715 229 766 167 766 C104 766 55 715 55 653 C55 592 105 541 167 541 C229 541 279 591 279 653 L279 653 Z M220 653 C220 624 196 600 167 600 C137 600 114 624 114 653 C114 683 137 707 167 707 C196 707 220 683 220 653 L220 653 Z " />
<glyph glyph-name="ogonek" unicode="&#x2db;" horiz-adv-x="333" d="M261 -143 C251 -149 240 -155 221 -155 C204 -155 166 -150 166 -96 C166 -50 203 -23 234 1 L189 1 C118 -34 72 -91 72 -142 C72 -175 97 -217 170 -217 C207 -217 227 -208 261 -191 L261 -143 Z " />
<glyph glyph-name="tilde" unicode="&#x2dc;" horiz-adv-x="333" d="M22 581 C24 589 32 621 70 621 C77 621 85 621 113 613 L195 589 C209 585 228 580 245 580 C320 580 378 646 385 724 L304 724 C303 714 300 685 271 685 C261 685 253 687 240 691 L163 713 C136 721 116 727 90 727 C47 727 11 709 -14 682 C-39 655 -54 619 -56 581 L22 581 Z " />
<glyph glyph-name="hungarumlaut" unicode="&#x2dd;" horiz-adv-x="667" d="M692 726 L488 726 L377 581 L509 581 L692 726 Z M411 726 L207 726 L96 581 L228 581 L411 726 Z " />
<glyph glyph-name="uni03A9" unicode="&#x3a9;" horiz-adv-x="854" d="M204 122 L44 122 L44 0 L376 0 L376 93 C292 134 225 229 225 360 C225 496 311 590 429 590 C554 590 628 485 628 365 C628 218 560 140 477 93 L477 0 L808 0 L808 122 L645 122 L645 125 C723 179 793 266 793 395 C793 555 659 711 428 711 C205 711 59 566 59 392 C59 263 134 173 204 125 L204 122 Z " />
<glyph glyph-name="uni03BC" unicode="&#x3bc;" horiz-adv-x="667" d="M94 -213 L228 -213 L228 40 C242 22 265 -8 326 -8 C391 -8 418 33 435 57 L435 0 L551 0 L551 502 L412 502 L412 250 C412 182 408 106 320 106 C241 106 234 165 234 255 L234 502 L94 502 L94 -213 Z " />
<glyph glyph-name="pi" unicode="&#x3c0;" horiz-adv-x="712" d="M684 401 L698 526 L199 526 C91 526 29 513 2 490 L19 391 C47 399 84 401 131 401 C131 292 100 107 65 0 L226 0 C263 85 290 285 294 401 L440 401 L440 154 C440 82 445 20 460 0 L620 0 C612 33 606 90 606 166 L606 401 L684 401 Z " />
<glyph glyph-name="endash" unicode="&#x2013;" horiz-adv-x="500" d="M0 204 L500 204 L500 331 L0 331 L0 204 Z " />
<glyph glyph-name="emdash" unicode="&#x2014;" horiz-adv-x="1000" d="M130 204 L870 204 L870 331 L130 331 L130 204 Z " />
<glyph glyph-name="quoteleft" unicode="&#x2018;" horiz-adv-x="333" d="M215 456 L282 722 L148 722 L29 456 L215 456 Z " />
<glyph glyph-name="quoteright" unicode="&#x2019;" horiz-adv-x="333" d="M106 722 L39 456 L174 456 L293 722 L106 722 Z " />
<glyph glyph-name="quotesinglbase" unicode="&#x201a;" horiz-adv-x="333" d="M23 -97 L150 -97 L255 139 L83 139 L23 -97 Z " />
<glyph glyph-name="quotedblleft" unicode="&#x201c;" horiz-adv-x="667" d="M278 456 L345 722 L211 722 L91 456 L278 456 Z M520 456 L587 722 L453 722 L333 456 L520 456 Z " />
<glyph glyph-name="quotedblright" unicode="&#x201d;" horiz-adv-x="667" d="M160 722 L93 456 L227 456 L346 722 L160 722 Z M402 722 L335 456 L469 456 L588 722 L402 722 Z " />
<glyph glyph-name="quotedblbase" unicode="&#x201e;" horiz-adv-x="667" d="M95 -97 L222 -97 L326 139 L155 139 L95 -97 Z M332 -97 L459 -97 L564 139 L392 139 L332 -97 Z " />
<glyph glyph-name="dagger" unicode="&#x2020;" horiz-adv-x="667" d="M250 441 L250 0 L406 0 L406 441 L574 441 L574 566 L406 566 L406 722 L250 722 L250 566 L79 566 L79 441 L250 441 Z " />
<glyph glyph-name="daggerdbl" unicode="&#x2021;" horiz-adv-x="667" d="M79 150 L250 150 L250 0 L406 0 L406 150 L574 150 L574 275 L406 275 L406 449 L574 449 L574 574 L406 574 L406 722 L250 722 L250 574 L79 574 L79 449 L250 449 L250 275 L79 275 L79 150 Z " />
<glyph glyph-name="bullet" unicode="&#x2022;" horiz-adv-x="500" d="M250 542 C151 542 69 462 69 361 C69 262 150 181 250 181 C350 181 431 262 431 361 C431 461 349 542 250 542 L250 542 Z " />
<glyph glyph-name="ellipsis" unicode="&#x2026;" horiz-adv-x="1000" d="M79 0 L255 0 L255 149 L79 149 L79 0 Z M412 0 L588 0 L588 149 L412 149 L412 0 Z M745 0 L921 0 L921 149 L745 149 L745 0 Z " />
<glyph glyph-name="perthousand" unicode="&#x2030;" horiz-adv-x="1000" d="M13 553 C13 522 17 464 52 426 C83 393 123 384 157 384 C186 384 229 391 261 428 C297 468 301 528 301 559 C301 664 251 729 160 729 C62 729 13 658 13 553 L13 553 Z M118 555 C118 627 132 651 157 651 C180 651 195 634 195 562 C195 528 192 460 157 460 C124 460 118 506 118 555 L118 555 Z M357 163 C357 132 362 74 397 36 C427 3 468 -6 502 -6 C530 -6 573 1 606 38 C641 78 646 138 646 169 C646 274 596 339 504 339 C406 339 357 268 357 163 L357 163 Z M463 165 C463 237 477 261 502 261 C525 261 540 244 540 172 C540 138 537 70 502 70 C468 70 463 116 463 165 L463 165 Z M692 163 C692 132 696 74 731 36 C762 3 802 -6 836 -6 C865 -6 908 1 940 38 C976 78 980 138 980 169 C980 274 930 339 839 339 C740 339 692 268 692 163 L692 163 Z M797 165 C797 237 811 261 836 261 C859 261 874 244 874 172 C874 138 871 70 836 70 C803 70 797 116 797 165 L797 165 Z M46 -20 L146 -20 L606 744 L508 744 L46 -20 Z " />
<glyph glyph-name="guilsinglleft" unicode="&#x2039;" horiz-adv-x="333" d="M150 449 L26 255 L151 59 L305 59 L186 253 L305 449 L150 449 Z " />
<glyph glyph-name="guilsinglright" unicode="&#x203a;" horiz-adv-x="333" d="M181 59 L305 253 L180 449 L26 449 L145 255 L26 59 L181 59 Z " />
<glyph glyph-name="fraction" unicode="&#x2044;" horiz-adv-x="167" d="M-44 0 L321 707 L212 707 L-153 0 L-44 0 Z " />
<glyph glyph-name="Euro" unicode="&#x20ac;" horiz-adv-x="667" d="M427 211 L470 319 L293 319 L293 345 L293 371 L490 371 L533 479 L302 479 C311 535 337 581 393 581 C418 581 434 577 445 568 C457 559 463 546 467 526 L654 526 C632 649 545 713 392 713 C232 713 144 614 112 479 L47 479 L5 371 L98 371 C98 364 97 352 97 345 C97 335 98 329 98 319 L42 319 L0 211 L114 211 C148 80 236 -14 392 -14 C459 -14 519 0 565 30 C612 60 646 106 659 169 L470 169 C464 148 451 118 393 118 C340 118 312 160 303 211 L427 211 Z " />
<glyph glyph-name="afii61289" unicode="&#x2113;" horiz-adv-x="623" d="M529 209 C495 162 440 116 377 116 C325 116 285 150 281 206 L280 233 C427 353 515 458 515 583 C515 681 461 768 338 768 C212 768 124 684 124 489 L124 263 C94 240 60 218 29 196 L72 115 C91 127 108 140 127 152 C127 149 127 146 128 143 C150 51 214 -11 338 -11 C432 -11 532 29 598 141 L529 209 Z M280 520 C280 630 315 663 347 663 C386 663 403 632 403 584 C403 519 353 440 280 367 L280 520 Z " />
<glyph glyph-name="trademark" unicode="&#x2122;" horiz-adv-x="950" d="M170 361 L270 361 L270 652 L382 652 L382 722 L62 722 L62 652 L170 652 L170 361 Z M412 361 L496 361 L496 665 L575 361 L664 361 L749 665 L745 361 L836 361 L836 722 L682 722 L625 477 L567 722 L412 722 L412 361 Z " />
<glyph glyph-name="Omega" unicode="&#x2126;" horiz-adv-x="854" d="M204 122 L44 122 L44 0 L376 0 L376 93 C292 134 225 229 225 360 C225 496 311 590 429 590 C554 590 628 485 628 365 C628 218 560 140 477 93 L477 0 L808 0 L808 122 L645 122 L645 125 C723 179 793 266 793 395 C793 555 659 711 428 711 C205 711 59 566 59 392 C59 263 134 173 204 125 L204 122 Z " />
<glyph glyph-name="estimated" unicode="&#x212e;" horiz-adv-x="876" d="M842 339 L842 349 C842 550 661 713 437 713 C215 713 34 550 34 349 C34 149 215 -13 437 -13 C567 -13 685 42 757 127 L699 127 C635 54 543 7 438 7 C341 7 254 49 191 115 C186 121 182 129 182 137 L182 335 C182 338 184 339 188 339 L842 339 Z M693 365 C693 363 692 359 689 359 L188 359 C184 359 182 363 182 365 L182 560 C182 569 186 578 192 585 C255 649 343 691 438 691 C534 691 620 650 683 588 C690 581 693 573 693 564 L693 365 Z " />
<glyph glyph-name="partialdiff" unicode="&#x2202;" horiz-adv-x="674" d="M114 618 C141 636 195 664 271 664 C393 664 467 556 467 432 C467 425 467 411 466 404 L465 404 C447 432 387 494 288 494 C140 494 36 384 36 232 C36 131 113 -11 287 -11 C491 -11 626 157 626 400 C626 642 478 788 291 788 C174 788 100 748 67 725 L114 618 Z M304 112 C242 112 197 164 197 230 C197 310 250 375 325 375 C395 375 440 318 450 286 C438 205 385 112 305 112 L304 112 Z " />
<glyph glyph-name="Delta" unicode="&#x2206;" horiz-adv-x="773" d="M26 0 L745 0 L745 84 L487 716 L290 716 L26 83 L26 0 Z M200 122 L325 429 C341 478 368 547 377 579 L382 579 C395 536 424 463 440 415 L561 122 L200 122 Z " />
<glyph glyph-name="product" unicode="&#x220f;" horiz-adv-x="835" d="M812 565 L812 699 L22 699 L22 565 L142 565 L142 -96 L300 -96 L300 565 L534 565 L534 -96 L692 -96 L692 565 L812 565 Z " />
<glyph glyph-name="summation" unicode="&#x2211;" horiz-adv-x="655" d="M637 -97 L637 39 L236 39 L236 43 L477 318 L258 565 L258 569 L615 569 L615 699 L36 699 L36 596 L294 299 L23 -6 L23 -97 L637 -97 Z " />
<glyph glyph-name="minus" unicode="&#x2212;" horiz-adv-x="660" d="M78 191 L582 191 L582 311 L78 311 L78 191 Z " />
<glyph glyph-name="uni2215" unicode="&#x2215;" horiz-adv-x="167" d="M-44 0 L321 707 L212 707 L-153 0 L-44 0 Z " />
<glyph glyph-name="uni2219" unicode="&#x2219;" horiz-adv-x="333" d="M72 204 L248 204 L248 353 L72 353 L72 204 Z " />
<glyph glyph-name="radical" unicode="&#x221a;" horiz-adv-x="689" d="M711 837 L597 837 L402 97 C394 63 388 31 383 7 L381 8 C374 33 365 62 356 92 L234 417 L31 334 L58 255 L141 288 L317 -147 L443 -147 L711 837 Z " />
<glyph glyph-name="infinity" unicode="&#x221e;" horiz-adv-x="839" d="M788 290 C788 399 712 469 618 470 C521 471 468 402 425 354 C370 425 313 470 232 470 C129 470 49 394 49 283 C49 174 132 100 222 100 C308 100 364 152 419 220 C490 124 554 100 612 100 C701 100 788 170 788 289 L788 290 Z M232 182 C175 182 133 228 134 283 C134 347 173 390 229 390 C297 390 332 338 374 280 C337 235 291 182 234 182 L232 182 Z M609 390 C666 390 703 345 703 283 C703 238 672 182 614 182 C564 182 530 207 466 287 C500 326 546 390 608 390 L609 390 Z " />
<glyph glyph-name="integral" unicode="&#x222b;" horiz-adv-x="433" d="M421 856 C408 862 379 869 351 869 C301 869 249 855 216 821 C167 773 146 707 146 590 C146 417 164 288 164 103 C164 17 153 -22 133 -47 C120 -62 101 -68 81 -68 C61 -68 43 -62 31 -57 L12 -160 C31 -170 71 -177 105 -177 C162 -177 223 -154 255 -96 C278 -56 295 10 295 102 C295 284 277 410 277 574 C277 656 283 709 305 738 C318 756 340 765 363 765 C379 765 394 762 405 757 L421 856 Z " />
<glyph glyph-name="approxequal" unicode="&#x2248;" horiz-adv-x="625" d="M528 472 C496 425 465 397 423 397 C388 397 368 410 325 435 C295 453 260 473 208 473 C138 473 71 424 37 365 L92 310 C123 349 154 385 203 385 C240 385 269 368 299 351 C348 323 378 308 426 308 C484 308 541 348 584 416 L528 472 Z M528 267 C494 220 466 192 422 192 C383 192 358 213 325 232 C295 248 260 268 208 268 C139 268 71 220 37 161 L92 105 C123 145 153 181 204 181 C239 181 266 165 299 146 C345 120 378 104 425 104 C486 104 541 145 584 212 L528 267 Z " />
<glyph glyph-name="notequal" unicode="&#x2260;" horiz-adv-x="625" d="M463 530 L392 561 L337 440 L53 440 L53 353 L300 353 L238 215 L53 215 L53 128 L201 128 L159 36 L229 4 L285 128 L572 128 L572 215 L323 215 L385 353 L572 353 L572 440 L422 440 L463 530 Z " />
<glyph glyph-name="lessequal" unicode="&#x2264;" horiz-adv-x="625" d="M570 113 L570 211 L149 391 L149 393 L569 572 L569 670 L57 439 L57 345 L570 113 Z M572 -14 L572 75 L53 75 L53 -14 L572 -14 Z " />
<glyph glyph-name="greaterequal" unicode="&#x2265;" horiz-adv-x="625" d="M58 670 L58 572 L478 393 L478 391 L58 211 L58 113 L571 344 L571 438 L58 670 Z M568 -14 L568 75 L54 75 L54 -14 L568 -14 Z " />
<glyph glyph-name="lozenge" unicode="&#x25ca;" horiz-adv-x="689" d="M636 349 L407 749 L283 749 L52 349 L281 -51 L404 -51 L636 349 Z M497 345 L365 109 C359 98 351 75 347 63 L343 63 C340 74 331 94 324 110 L191 352 L321 585 C329 601 337 619 342 634 L344 634 C348 620 357 600 364 585 L497 345 Z " />
<glyph glyph-name="fi" unicode="&#xfb01;" horiz-adv-x="722" d="M651 0 L651 502 L461 502 L461 0 L651 0 Z M652 588 L652 722 L460 722 L460 588 L652 588 Z M304 0 L304 382 L421 382 L421 502 L304 502 C302 558 310 614 374 614 C391 614 410 608 427 603 L427 722 C393 729 359 734 325 734 C154 734 110 670 116 502 L20 502 L20 382 L114 382 L114 0 L304 0 Z " />
<glyph glyph-name="fl" unicode="&#xfb02;" horiz-adv-x="722" d="M651 0 L651 722 L461 722 L461 0 L651 0 Z M304 0 L304 382 L421 382 L421 502 L304 502 C302 558 310 614 374 614 C391 614 410 608 427 603 L427 722 C393 729 359 734 325 734 C154 734 110 670 116 502 L20 502 L20 382 L114 382 L114 0 L304 0 Z " />
</font>
</svg>
