<?xml version="1.0" encoding="UTF-8"?>
<svg xmlns="http://www.w3.org/2000/svg" xmlns:xlink="http://www.w3.org/1999/xlink" version="1.2" >
<font id="Univers LT Std 45 Light">
<font-face  font-family="Univers LT Std" units-per-em="1000" ascent="724" descent="-276" font-style="normal" font-weight="300" font-stretch="normal" cap-height="724" x-height="498" underline-position="-75" underline-thickness="50" />
<missing-glyph  horiz-adv-x="500" d="M0 0 L500 0 L500 700 L0 700 L0 0 Z M250 395 L80 650 L420 650 L250 395 Z M280 350 L450 605 L450 95 L280 350 Z M80 50 L250 305 L420 50 L80 50 Z M50 605 L220 350 L50 95 L50 605 Z " />
<glyph glyph-name="NULL" d="" />
<glyph glyph-name="CR" unicode="&#xd;" horiz-adv-x="250" d="" />
<glyph glyph-name="space" unicode="&#x20;" horiz-adv-x="278" d="" />
<glyph glyph-name="exclam" unicode="&#x21;" horiz-adv-x="389" d="M223 171 L236 722 L154 722 L167 171 L223 171 Z M155 86 L155 0 L235 0 L235 86 L155 86 Z " />
<glyph glyph-name="quotedbl" unicode="&#x22;" horiz-adv-x="278" d="M58 496 L110 496 L110 722 L58 722 L58 496 Z M168 496 L220 496 L220 722 L168 722 L168 496 Z " />
<glyph glyph-name="numbersign" unicode="&#x23;" horiz-adv-x="556" d="M361 423 L341 286 L204 286 L226 423 L361 423 Z M527 483 L428 483 L459 692 L400 692 L370 483 L235 483 L266 692 L207 692 L175 483 L56 483 L56 423 L167 423 L147 286 L29 286 L29 226 L138 226 L104 0 L162 0 L196 226 L332 226 L301 0 L360 0 L391 226 L501 226 L501 286 L400 286 L420 423 L527 423 L527 483 Z " />
<glyph glyph-name="dollar" unicode="&#x24;" horiz-adv-x="556" d="M301 309 C365 286 445 263 445 176 C445 94 370 50 301 45 L301 309 Z M301 -15 C406 -15 515 44 515 174 C515 310 405 341 301 374 L301 649 C361 647 432 617 433 532 L503 532 C496 645 399 707 301 707 L301 755 L251 755 L251 707 C157 707 55 621 55 515 C55 367 199 342 251 320 L251 45 C174 50 106 87 112 176 L42 176 C36 45 146 -12 251 -15 L251 -68 L301 -68 L301 -15 Z M251 389 C189 408 125 438 125 516 C125 596 186 646 251 647 L251 389 Z " />
<glyph glyph-name="percent" unicode="&#x25;" horiz-adv-x="1000" d="M277 662 C355 662 381 583 381 518 C381 453 355 374 277 374 C199 374 173 453 173 518 C173 583 199 662 277 662 L277 662 Z M653 707 L263 0 L321 0 L711 707 L653 707 Z M277 707 C176 707 118 617 118 518 C118 419 176 329 277 329 C378 329 436 419 436 518 C436 617 378 707 277 707 L277 707 Z M723 363 C622 363 564 273 564 174 C564 75 622 -15 723 -15 C824 -15 882 75 882 174 C882 273 824 363 723 363 L723 363 Z M723 318 C801 318 827 239 827 174 C827 109 801 30 723 30 C645 30 619 109 619 174 C619 239 645 318 723 318 L723 318 Z " />
<glyph glyph-name="ampersand" unicode="&#x26;" horiz-adv-x="722" d="M501 138 C447 81 393 45 312 45 C215 45 124 107 124 212 C124 275 227 350 275 381 L501 138 Z M287 461 C254 497 209 553 209 605 C209 657 253 677 300 677 C344 677 388 654 388 605 C388 542 328 501 287 461 L287 461 Z M230 422 C149 368 54 308 54 198 C54 66 172 -15 318 -15 C411 -15 479 25 539 96 L625 0 L718 0 L581 149 C636 242 643 356 653 461 L583 461 C587 380 570 269 537 194 L326 419 C389 467 458 523 458 609 C458 698 375 737 297 737 C218 737 139 695 139 606 C139 534 190 477 234 426 C233 425 231 424 230 422 L230 422 Z " />
<glyph glyph-name="quotesingle" unicode="&#x27;" horiz-adv-x="278" d="M113 496 L165 496 L165 722 L113 722 L113 496 Z " />
<glyph glyph-name="parenleft" unicode="&#x28;" horiz-adv-x="278" d="M234 -96 C188 22 146 176 146 313 C146 442 181 587 234 722 L184 722 C133 592 76 454 76 313 C76 169 134 35 183 -96 L234 -96 Z " />
<glyph glyph-name="parenright" unicode="&#x29;" horiz-adv-x="278" d="M95 -96 C144 35 202 169 202 313 C202 454 145 592 94 722 L44 722 C97 587 132 442 132 313 C132 176 90 22 44 -96 L95 -96 Z " />
<glyph glyph-name="asterisk" unicode="&#x2a;" horiz-adv-x="556" d="M211 722 L158 693 L249 567 L104 579 L104 521 L248 531 L161 403 L211 374 L279 514 L344 376 L396 403 L310 532 L452 521 L452 579 L309 567 L397 694 L346 722 L279 586 L211 722 Z " />
<glyph glyph-name="plus" unicode="&#x2b;" horiz-adv-x="660" d="M300 281 L80 281 L80 221 L300 221 L300 0 L360 0 L360 221 L580 221 L580 281 L360 281 L360 502 L300 502 L300 281 Z " />
<glyph glyph-name="comma" unicode="&#x2c;" horiz-adv-x="278" d="M102 81 L59 -124 L111 -124 L183 81 L102 81 Z " />
<glyph glyph-name="hyphen" unicode="&#x2d;" horiz-adv-x="278" d="M13 237 L265 237 L265 297 L13 297 L13 237 Z " />
<glyph glyph-name="period" unicode="&#x2e;" horiz-adv-x="278" d="M179 0 L179 86 L99 86 L99 0 L179 0 Z " />
<glyph glyph-name="slash" unicode="&#x2f;" horiz-adv-x="278" d="M-23 -96 L40 -96 L301 722 L236 722 L-23 -96 Z " />
<glyph glyph-name="zero" unicode="0" horiz-adv-x="556" d="M278 647 C425 647 438 449 438 346 C438 243 425 45 278 45 C131 45 118 243 118 346 C118 449 131 647 278 647 L278 647 Z M278 707 C89 707 48 522 48 346 C48 170 89 -15 278 -15 C467 -15 508 170 508 346 C508 522 467 707 278 707 L278 707 Z " />
<glyph glyph-name="one" unicode="1" horiz-adv-x="556" d="M116 518 C172 545 226 578 272 622 L272 0 L337 0 L337 692 L275 692 C230 647 175 607 116 583 L116 518 Z " />
<glyph glyph-name="two" unicode="2" horiz-adv-x="556" d="M485 0 L485 60 L128 60 C235 163 476 366 476 528 C476 648 380 707 269 707 C149 707 57 631 57 509 L127 509 C127 590 184 647 267 647 C342 647 406 605 406 524 C406 400 140 149 50 68 L50 0 L485 0 Z " />
<glyph glyph-name="three" unicode="3" horiz-adv-x="556" d="M225 329 C320 343 427 304 427 193 C427 94 351 45 259 45 C179 45 103 97 102 183 L32 183 C36 51 138 -15 260 -15 C376 -15 497 55 497 185 C497 278 433 341 345 360 L345 362 C422 378 486 434 486 518 C486 652 371 707 254 707 C146 707 42 638 42 521 L112 521 C121 601 175 647 263 647 C344 647 416 602 416 522 C416 418 314 382 225 392 L225 329 Z " />
<glyph glyph-name="four" unicode="4" horiz-adv-x="556" d="M347 0 L412 0 L412 161 L523 161 L523 215 L412 215 L412 692 L326 692 L22 224 L22 161 L347 161 L347 0 Z M347 215 L77 215 L345 627 L347 627 L347 215 Z " />
<glyph glyph-name="five" unicode="5" horiz-adv-x="556" d="M76 291 L143 291 C157 356 217 396 283 396 C387 396 438 328 438 228 C438 128 387 45 279 45 C200 45 136 87 132 170 L62 170 C66 39 169 -15 286 -15 C423 -15 508 92 508 225 C508 349 427 456 297 456 C235 456 184 428 145 383 L143 385 L154 632 L473 632 L473 692 L92 692 L76 291 Z " />
<glyph glyph-name="six" unicode="6" horiz-adv-x="556" d="M296 394 C399 394 441 307 441 216 C441 118 385 45 283 45 C193 45 127 124 127 211 C127 314 186 394 296 394 L296 394 Z M297 707 C73 707 45 488 45 311 C45 145 100 -15 293 -15 C429 -15 511 88 511 220 C511 352 436 449 299 449 C218 449 148 412 117 336 L115 336 C115 466 134 647 300 647 C371 647 429 602 432 530 L502 530 C500 650 410 707 297 707 L297 707 Z " />
<glyph glyph-name="seven" unicode="7" horiz-adv-x="556" d="M492 692 L51 692 L51 632 L424 632 L147 0 L223 0 L492 634 L492 692 Z " />
<glyph glyph-name="eight" unicode="8" horiz-adv-x="556" d="M194 359 C104 340 42 277 43 188 C43 48 162 -15 278 -15 C394 -15 513 48 513 188 C513 280 456 336 364 360 L364 361 C443 379 503 437 503 521 C503 649 389 707 278 707 C167 707 53 649 53 521 C53 439 113 369 194 361 L194 359 Z M118 521 C118 614 201 652 278 652 C355 652 438 614 438 521 C438 435 370 391 278 391 C186 391 118 435 118 521 L118 521 Z M113 188 C113 287 192 331 278 331 C364 331 443 287 443 188 C443 89 364 45 278 45 C192 45 113 89 113 188 L113 188 Z " />
<glyph glyph-name="nine" unicode="9" horiz-adv-x="556" d="M267 647 C362 647 430 580 430 485 C430 389 359 321 263 321 C172 321 115 385 115 476 C115 572 164 647 267 647 L267 647 Z M47 170 C56 60 126 -15 249 -15 C470 -15 512 179 512 365 C512 537 467 707 266 707 C132 707 45 613 45 481 C45 357 132 266 257 266 C337 266 406 305 440 372 L442 372 C442 267 425 45 267 45 C182 45 120 79 117 170 L47 170 Z " />
<glyph glyph-name="colon" unicode="&#x3a;" horiz-adv-x="278" d="M99 502 L99 416 L179 416 L179 502 L99 502 Z M99 86 L99 0 L179 0 L179 86 L99 86 Z " />
<glyph glyph-name="semicolon" unicode="&#x3b;" horiz-adv-x="278" d="M121 81 L78 -124 L130 -124 L202 81 L121 81 Z M107 502 L107 416 L187 416 L187 502 L107 502 Z " />
<glyph glyph-name="less" unicode="&#x3c;" horiz-adv-x="660" d="M159 251 L580 437 L580 501 L80 278 L80 225 L580 -10 L580 54 L159 251 Z " />
<glyph glyph-name="equal" unicode="&#x3d;" horiz-adv-x="660" d="M580 378 L80 378 L80 318 L580 318 L580 378 Z M580 184 L80 184 L80 124 L580 124 L580 184 Z " />
<glyph glyph-name="greater" unicode="&#x3e;" horiz-adv-x="660" d="M501 251 L80 65 L80 1 L580 224 L580 277 L80 512 L80 448 L501 251 Z " />
<glyph glyph-name="question" unicode="&#x3f;" horiz-adv-x="500" d="M234 169 L234 239 C229 297 251 301 322 375 C378 429 425 474 425 558 C425 680 327 737 214 737 C177 737 140 734 104 723 L104 662 C134 671 166 677 198 677 C280 677 360 650 360 556 C360 430 177 372 174 277 L174 169 L234 169 Z M164 86 L164 0 L244 0 L244 86 L164 86 Z " />
<glyph glyph-name="at" unicode="&#x40;" horiz-adv-x="800" d="M257 290 C257 380 324 525 430 525 C470 525 498 493 498 454 C498 365 425 197 334 196 C284 196 257 242 257 290 L257 290 Z M539 520 C519 563 474 585 428 585 C281 585 182 418 182 285 C182 203 234 136 319 136 C361 136 408 155 438 186 C449 150 488 134 523 134 C629 134 754 267 754 424 C754 605 602 737 412 737 C210 737 40 570 40 364 C40 155 203 -15 416 -15 C546 -15 675 55 737 170 L679 170 C619 84 518 35 416 35 C237 35 100 178 100 357 C100 537 230 687 414 687 C564 687 694 588 694 427 C694 321 619 189 537 189 C497 189 505 222 520 266 L620 566 L554 566 L539 520 Z " />
<glyph glyph-name="A" unicode="A" horiz-adv-x="667" d="M173 255 L332 662 L488 255 L173 255 Z M76 0 L152 195 L511 195 L588 0 L659 0 L371 722 L295 722 L9 0 L76 0 Z " />
<glyph glyph-name="B" unicode="B" horiz-adv-x="667" d="M165 344 L285 344 C421 344 520 325 520 202 C520 91 448 58 324 60 L165 60 L165 344 Z M165 404 L165 662 L319 662 C404 661 490 640 490 535 C490 437 406 404 322 404 L165 404 Z M375 0 C532 0 590 98 590 193 C590 296 524 360 426 376 L426 378 C502 396 560 461 560 541 C560 656 466 721 359 721 L100 722 L100 0 L375 0 Z " />
<glyph glyph-name="C" unicode="C" horiz-adv-x="667" d="M612 553 C602 683 490 737 372 737 C154 737 61 559 61 361 C61 161 153 -15 372 -15 C488 -15 599 54 620 175 L550 175 C532 85 452 45 372 45 C187 45 131 213 131 361 C131 509 187 677 372 677 C454 677 530 641 542 553 L612 553 Z " />
<glyph glyph-name="D" unicode="D" horiz-adv-x="722" d="M156 60 L156 662 L258 662 C463 668 588 574 588 361 C588 179 505 60 302 60 L156 60 Z M91 722 L91 0 L286 0 C523 0 658 122 658 361 C658 600 523 722 286 722 L91 722 Z " />
<glyph glyph-name="E" unicode="E" horiz-adv-x="611" d="M546 0 L546 60 L167 60 L167 343 L517 343 L517 403 L167 403 L167 662 L531 662 L531 722 L102 722 L102 0 L546 0 Z " />
<glyph glyph-name="F" unicode="F" horiz-adv-x="556" d="M160 0 L160 347 L491 347 L491 407 L160 407 L160 662 L503 662 L503 722 L95 722 L95 0 L160 0 Z " />
<glyph glyph-name="G" unicode="G" horiz-adv-x="722" d="M385 368 L385 308 L566 308 L566 75 C515 60 460 45 406 45 C211 45 134 177 134 361 C134 511 199 677 372 677 C458 677 539 636 552 544 L626 544 C615 672 492 737 372 737 C163 737 64 547 64 361 C64 139 175 -15 372 -15 C465 -15 544 -4 631 30 L631 368 L385 368 Z " />
<glyph glyph-name="H" unicode="H" horiz-adv-x="722" d="M164 0 L164 345 L558 345 L558 0 L623 0 L623 722 L558 722 L558 405 L164 405 L164 722 L99 722 L99 0 L164 0 Z " />
<glyph glyph-name="I" unicode="I" horiz-adv-x="278" d="M172 0 L172 725 L107 725 L107 0 L172 0 Z " />
<glyph glyph-name="J" unicode="J" horiz-adv-x="500" d="M13 178 C27 73 82 -15 199 -15 C261 -15 321 6 362 56 C409 113 412 182 412 235 L412 722 L347 722 L347 225 C347 138 312 45 220 45 C142 45 90 100 83 178 L13 178 Z " />
<glyph glyph-name="K" unicode="K" horiz-adv-x="611" d="M170 0 L171 377 L517 0 L606 0 L243 396 L576 722 L494 722 L171 404 L170 722 L106 722 L106 0 L170 0 Z " />
<glyph glyph-name="L" unicode="L" horiz-adv-x="556" d="M528 0 L528 60 L165 60 L165 722 L100 722 L100 0 L528 0 Z " />
<glyph glyph-name="M" unicode="M" horiz-adv-x="944" d="M162 0 L162 664 L164 664 L440 0 L505 0 L781 667 L783 667 L783 0 L848 0 L848 722 L749 722 L472 93 L201 722 L97 722 L97 0 L162 0 Z " />
<glyph glyph-name="N" unicode="N" horiz-adv-x="722" d="M92 0 L157 0 L157 624 L159 624 L549 0 L631 0 L631 722 L566 722 L566 87 L564 87 L166 722 L92 722 L92 0 Z " />
<glyph glyph-name="O" unicode="O" horiz-adv-x="778" d="M137 361 C137 519 209 677 389 677 C569 677 641 519 641 361 C641 203 569 45 389 45 C209 45 137 203 137 361 L137 361 Z M711 361 C711 586 596 737 389 737 C182 737 67 586 67 361 C67 136 182 -15 389 -15 C596 -15 711 136 711 361 L711 361 Z " />
<glyph glyph-name="P" unicode="P" horiz-adv-x="611" d="M165 662 L323 662 C420 662 506 631 506 518 C506 405 420 374 323 374 L165 374 L165 662 Z M165 0 L165 314 L281 314 C420 311 576 346 576 518 C576 690 420 725 281 722 L100 722 L100 0 L165 0 Z " />
<glyph glyph-name="Q" unicode="Q" horiz-adv-x="778" d="M738 0 L738 60 C685 58 631 61 581 53 L579 55 C670 124 711 244 711 361 C711 586 596 737 389 737 C182 737 67 586 67 361 C67 136 182 -15 389 -15 C410 -15 438 -9 463 -1 C502 10 560 0 591 0 L738 0 Z M137 361 C137 519 209 677 389 677 C569 677 641 519 641 361 C641 203 569 45 389 45 C209 45 137 203 137 361 L137 361 Z " />
<glyph glyph-name="R" unicode="R" horiz-adv-x="667" d="M168 404 L168 662 L314 662 C383 662 513 672 513 533 C513 410 399 404 307 404 L168 404 Z M168 344 L347 344 C478 344 488 315 503 150 C507 99 511 48 528 0 L603 0 C574 44 578 98 565 215 C556 299 536 361 444 376 L444 378 C528 399 583 455 583 533 C583 602 559 654 509 684 C454 718 402 722 339 722 L103 722 L103 0 L168 0 L168 344 Z " />
<glyph glyph-name="S" unicode="S" horiz-adv-x="611" d="M553 190 C553 439 145 346 145 551 C145 639 238 677 313 677 C387 677 468 654 470 565 L540 565 C524 704 400 737 305 737 C191 737 75 668 75 542 C75 386 253 349 370 310 C431 290 483 256 483 184 C483 92 390 45 309 45 C212 45 130 77 128 188 L58 188 C61 69 158 -15 273 -15 C418 -15 553 33 553 190 L553 190 Z " />
<glyph glyph-name="T" unicode="T" horiz-adv-x="556" d="M248 0 L312 0 L313 662 L542 662 L542 722 L14 722 L14 662 L247 662 L248 0 Z " />
<glyph glyph-name="U" unicode="U" horiz-adv-x="722" d="M97 722 L97 254 C99 99 186 -15 361 -15 C536 -15 623 99 625 254 L625 722 L560 722 L560 255 C555 124 480 45 361 45 C242 45 167 124 162 255 L162 722 L97 722 Z " />
<glyph glyph-name="V" unicode="V" horiz-adv-x="611" d="M77 722 L6 722 L270 0 L344 0 L605 722 L540 722 L311 65 L309 65 L77 722 Z " />
<glyph glyph-name="W" unicode="W" horiz-adv-x="1000" d="M497 655 L499 655 L712 0 L801 0 L991 722 L928 722 L761 65 L759 65 L539 722 L460 722 L249 65 L247 65 L79 722 L10 722 L198 0 L290 0 L497 655 Z " />
<glyph glyph-name="X" unicode="X" horiz-adv-x="611" d="M301 323 L520 0 L603 0 L345 372 L595 722 L522 722 L310 418 L106 722 L21 722 L265 372 L8 0 L82 0 L301 323 Z " />
<glyph glyph-name="Y" unicode="Y" horiz-adv-x="611" d="M274 0 L339 0 L339 314 L603 722 L533 722 L312 373 L91 722 L8 722 L274 312 L274 0 Z " />
<glyph glyph-name="Z" unicode="Z" horiz-adv-x="556" d="M517 0 L517 60 L115 60 L517 662 L517 722 L39 722 L39 662 L440 662 L39 60 L39 0 L517 0 Z " />
<glyph glyph-name="bracketleft" unicode="&#x5b;" horiz-adv-x="278" d="M222 -96 L222 -46 L150 -46 L150 672 L222 672 L222 722 L85 722 L85 -96 L222 -96 Z " />
<glyph glyph-name="backslash" unicode="&#x5c;" horiz-adv-x="278" d="M258 0 L323 0 L21 722 L-44 722 L258 0 Z " />
<glyph glyph-name="bracketright" unicode="&#x5d;" horiz-adv-x="278" d="M56 722 L56 672 L128 672 L128 -46 L56 -46 L56 -96 L193 -96 L193 722 L56 722 Z " />
<glyph glyph-name="asciicircum" unicode="&#x5e;" horiz-adv-x="660" d="M132 239 L329 631 L530 239 L587 239 L356 692 L304 692 L74 239 L132 239 Z " />
<glyph glyph-name="underscore" unicode="&#x5f;" horiz-adv-x="500" d="M500 -124 L500 -68 L0 -68 L0 -124 L500 -124 Z " />
<glyph glyph-name="grave" unicode="&#x60;" horiz-adv-x="278" d="M20 707 L147 564 L191 564 L100 707 L20 707 Z " />
<glyph glyph-name="a" unicode="a" horiz-adv-x="500" d="M101 140 C101 266 279 250 364 253 C370 148 345 40 214 40 C153 40 101 72 101 140 L101 140 Z M364 308 C291 304 204 314 137 285 C77 260 36 208 36 140 C36 42 110 -15 203 -15 C271 -15 338 25 360 67 L363 74 L365 74 L367 0 L429 0 C427 34 423 74 424 113 L424 351 C426 466 357 517 246 517 C150 517 73 478 58 375 L122 375 C130 443 182 462 245 462 C316 462 358 436 364 354 L364 308 Z " />
<glyph glyph-name="b" unicode="b" horiz-adv-x="556" d="M292 462 C406 462 445 354 445 258 C445 165 416 40 301 40 C170 40 130 147 130 261 C130 363 175 462 292 462 L292 462 Z M130 74 L132 78 C173 18 234 -15 307 -15 C453 -15 510 127 510 253 C510 383 453 517 304 517 C237 517 167 485 132 426 L130 428 L130 722 L70 722 L70 113 C70 74 67 34 65 0 L127 0 L130 74 Z " />
<glyph glyph-name="c" unicode="c" horiz-adv-x="500" d="M462 348 C457 455 373 517 270 517 C121 517 46 387 46 251 C46 114 116 -15 266 -15 C380 -15 446 42 462 157 L397 157 C392 88 338 40 260 40 C168 40 111 137 111 252 C111 366 168 462 260 462 C343 462 392 425 397 348 L462 348 Z " />
<glyph glyph-name="d" unicode="d" horiz-adv-x="556" d="M424 263 C424 149 384 40 253 40 C138 40 111 167 111 260 C111 356 148 462 262 462 C379 462 424 365 424 263 L424 263 Z M429 0 L491 0 C489 34 486 74 486 113 L486 722 L426 722 L426 428 L424 426 C389 485 319 517 252 517 C103 517 46 383 46 253 C46 127 103 -15 252 -15 C322 -15 383 18 424 78 L426 74 L429 0 Z " />
<glyph glyph-name="e" unicode="e" horiz-adv-x="556" d="M503 237 C503 394 442 517 274 517 C125 517 50 387 50 251 C50 114 120 -15 270 -15 C391 -15 466 40 497 160 L434 160 C419 91 360 40 289 40 C166 40 117 130 115 237 L503 237 Z M117 292 C125 380 177 462 275 462 C379 462 431 389 438 292 L117 292 Z " />
<glyph glyph-name="f" unicode="f" horiz-adv-x="333" d="M183 0 L183 447 L297 447 L297 502 L183 502 L183 566 C180 638 182 679 264 679 C276 679 289 677 301 675 L301 723 C283 727 263 734 244 734 C158 734 123 695 123 609 L123 502 L22 502 L22 447 L123 447 L123 0 L183 0 Z " />
<glyph glyph-name="g" unicode="g" horiz-adv-x="556" d="M426 262 C426 164 382 57 267 57 C157 57 110 168 110 260 C110 352 156 462 265 462 C373 462 426 358 426 262 L426 262 Z M426 428 L424 424 C384 482 332 517 259 517 C106 517 45 391 45 255 C45 117 110 2 261 2 C326 2 395 37 424 96 L426 96 L426 2 C424 -82 352 -137 274 -137 C210 -137 139 -117 132 -57 L67 -57 C67 -161 175 -192 266 -192 C313 -192 340 -188 380 -169 C491 -117 486 -12 486 88 L486 389 C486 428 489 468 491 502 L429 502 L426 428 Z " />
<glyph glyph-name="h" unicode="h" horiz-adv-x="556" d="M140 722 L80 722 L80 0 L140 0 L140 289 C140 379 185 462 284 462 C366 462 416 411 416 324 L416 0 L476 0 L476 314 C476 372 463 517 299 517 C234 517 177 488 142 426 L140 426 L140 722 Z " />
<glyph glyph-name="i" unicode="i" horiz-adv-x="222" d="M81 502 L81 0 L141 0 L141 502 L81 502 Z M146 722 L76 722 L76 647 L146 647 L146 722 Z " />
<glyph glyph-name="j" unicode="j" horiz-adv-x="222" d="M3 -192 C138 -196 141 -151 141 -22 L141 502 L81 502 L81 17 C81 -114 91 -138 3 -137 L3 -192 Z M146 722 L76 722 L76 647 L146 647 L146 722 Z " />
<glyph glyph-name="k" unicode="k" horiz-adv-x="500" d="M146 722 L86 722 L86 0 L146 0 L146 272 L410 0 L486 0 L212 285 L466 502 L389 502 L146 297 L146 722 Z " />
<glyph glyph-name="l" unicode="l" horiz-adv-x="222" d="M141 722 L81 722 L81 0 L141 0 L141 722 Z " />
<glyph glyph-name="m" unicode="m" horiz-adv-x="889" d="M136 502 L74 502 C76 468 79 428 79 389 L79 0 L139 0 L139 289 C139 379 184 462 283 462 C365 462 415 411 415 324 L415 0 L475 0 L475 289 C475 379 520 462 619 462 C701 462 751 411 751 324 L751 0 L811 0 L811 314 C811 372 798 517 634 517 C556 517 498 466 461 407 C439 473 377 517 298 517 C233 517 176 488 141 426 L139 428 L136 502 Z " />
<glyph glyph-name="n" unicode="n" horiz-adv-x="556" d="M140 289 C140 379 185 462 284 462 C366 462 416 411 416 324 L416 0 L476 0 L476 314 C476 372 463 517 299 517 C234 517 177 488 142 426 L140 428 L137 502 L75 502 C77 468 80 428 80 389 L80 0 L140 0 L140 289 Z " />
<glyph glyph-name="o" unicode="o" horiz-adv-x="556" d="M447 251 C447 158 399 40 278 40 C157 40 109 158 109 251 C109 344 157 462 278 462 C399 462 447 344 447 251 L447 251 Z M278 517 C118 517 44 383 44 251 C44 119 118 -15 278 -15 C438 -15 512 119 512 251 C512 383 438 517 278 517 L278 517 Z " />
<glyph glyph-name="p" unicode="p" horiz-adv-x="556" d="M130 263 C130 365 175 462 292 462 C406 462 445 356 445 260 C445 167 416 40 301 40 C170 40 130 149 130 263 L130 263 Z M130 78 L132 78 C173 18 234 -15 307 -15 C453 -15 510 127 510 253 C510 383 453 517 304 517 C237 517 167 485 132 426 L130 428 L127 502 L65 502 C67 468 71 428 70 389 L70 -192 L130 -192 L130 78 Z " />
<glyph glyph-name="q" unicode="q" horiz-adv-x="556" d="M426 263 C426 149 386 40 255 40 C140 40 111 167 111 260 C111 356 150 462 264 462 C381 462 426 365 426 263 L426 263 Z M426 428 L426 425 L424 425 L424 428 C389 485 319 517 252 517 C103 517 46 383 46 253 C46 127 103 -15 249 -15 C322 -15 383 18 424 78 L426 78 L426 -191 L486 -191 L486 389 C486 428 489 468 491 502 L429 502 L426 428 Z " />
<glyph glyph-name="r" unicode="r" horiz-adv-x="333" d="M140 302 C142 398 189 462 278 462 C290 462 303 459 315 458 L315 516 C295 517 275 518 255 517 C205 515 160 479 142 428 L140 428 L137 502 L75 502 C77 468 81 428 80 389 L80 0 L140 0 L140 302 Z " />
<glyph glyph-name="s" unicode="s" horiz-adv-x="500" d="M63 377 C63 284 143 261 222 242 C302 224 381 212 381 140 C381 70 314 40 250 40 C182 40 116 62 111 137 L46 137 C48 26 148 -15 235 -15 C341 -15 446 36 446 149 C446 203 413 248 361 266 C225 314 128 307 128 381 C128 440 185 462 241 462 C303 462 359 441 365 378 L430 378 C422 484 342 517 247 517 C159 517 63 481 63 377 L63 377 Z " />
<glyph glyph-name="t" unicode="t" horiz-adv-x="333" d="M123 134 C123 66 116 -15 243 -15 C263 -15 285 -11 304 -6 L304 46 C288 41 270 40 252 40 C206 40 182 65 183 111 L183 447 L297 447 L297 502 L183 502 L183 635 L123 609 L123 502 L23 502 L23 447 L123 447 L123 134 Z " />
<glyph glyph-name="u" unicode="u" horiz-adv-x="556" d="M416 213 C416 123 371 40 272 40 C190 40 140 91 140 178 L140 502 L80 502 L80 188 C80 130 93 -15 257 -15 C322 -15 379 14 414 76 L416 74 L419 0 L481 0 C479 34 476 74 476 113 L476 502 L416 502 L416 213 Z " />
<glyph glyph-name="v" unicode="v" horiz-adv-x="500" d="M14 502 L219 0 L287 0 L486 502 L420 502 L253 83 L80 502 L14 502 Z " />
<glyph glyph-name="w" unicode="w" horiz-adv-x="833" d="M82 502 L16 502 L200 0 L261 0 L418 433 L420 433 L574 0 L631 0 L818 502 L752 502 L607 83 L605 83 L457 502 L386 502 L234 79 L232 79 L82 502 Z " />
<glyph glyph-name="x" unicode="x" horiz-adv-x="500" d="M253 300 L106 502 L26 502 L211 257 L19 2 L17 0 L85 0 L243 218 L404 0 L483 0 L287 259 L467 502 L404 502 L253 300 Z " />
<glyph glyph-name="y" unicode="y" horiz-adv-x="500" d="M8 502 L216 0 L140 -192 L206 -192 L483 502 L418 502 L250 82 L81 502 L8 502 Z " />
<glyph glyph-name="z" unicode="z" horiz-adv-x="444" d="M40 0 L404 0 L404 55 L113 55 L404 447 L404 502 L40 502 L40 447 L333 447 L40 55 L40 0 Z " />
<glyph glyph-name="braceleft" unicode="&#x7b;" horiz-adv-x="278" d="M248 -46 L215 -46 C189 -40 175 -18 175 29 L175 171 C176 266 118 306 110 312 C118 319 176 359 175 454 L175 597 C175 644 189 666 215 672 L248 672 L248 722 L198 722 C158 718 110 679 110 613 L110 469 C110 395 100 346 38 339 L38 284 C100 277 110 229 110 156 L110 13 C110 -53 158 -92 198 -96 L248 -96 L248 -46 Z " />
<glyph glyph-name="bar" unicode="&#x7c;" horiz-adv-x="222" d="M81 -250 L141 -250 L141 750 L81 750 L81 -250 Z " />
<glyph glyph-name="braceright" unicode="&#x7d;" horiz-adv-x="278" d="M30 672 L63 672 C89 666 103 644 103 597 L103 455 C102 360 160 320 168 314 C160 307 102 267 103 172 L103 29 C103 -18 89 -40 63 -46 L30 -46 L30 -96 L80 -96 C120 -92 168 -53 168 13 L168 157 C168 230 178 279 240 286 L240 341 C178 348 168 396 168 470 L168 613 C168 679 120 718 80 722 L30 722 L30 672 Z " />
<glyph glyph-name="asciitilde" unicode="&#x7e;" horiz-adv-x="660" d="M221 319 C150 319 109 259 80 216 L113 169 C136 208 168 264 221 264 C250 264 279 244 305 233 C339 219 403 191 440 191 C507 191 552 246 580 300 L540 334 C521 298 486 247 441 247 C415 247 378 265 338 283 C299 301 257 319 221 319 L221 319 Z " />
<glyph glyph-name="uni00A0" unicode="&#xa0;" horiz-adv-x="278" d="" />
<glyph glyph-name="exclamdown" unicode="&#xa1;" horiz-adv-x="389" d="M155 542 L155 456 L235 456 L235 542 L155 542 Z M167 371 L154 -180 L236 -180 L223 371 L167 371 Z " />
<glyph glyph-name="cent" unicode="&#xa2;" horiz-adv-x="556" d="M204 71 C160 107 135 176 135 252 C135 366 192 462 284 462 C294 462 303 461 313 460 L204 71 Z M328 514 C318 516 306 517 294 517 C145 517 70 387 70 251 C70 150 108 55 187 11 L146 -133 L191 -133 L227 -6 C245 -12 267 -15 290 -15 C404 -15 470 42 486 157 L421 157 C416 88 362 40 284 40 C269 40 255 43 242 48 L354 450 C395 434 418 400 421 348 L486 348 C482 427 435 482 369 505 L407 639 L363 639 L328 514 Z " />
<glyph glyph-name="sterling" unicode="&#xa3;" horiz-adv-x="556" d="M505 0 L505 60 L185 60 L185 372 L347 372 L347 432 L185 432 L185 474 C185 571 228 647 332 647 C402 647 455 616 457 564 L527 564 C525 656 441 707 340 707 C147 707 114 578 121 432 L46 432 L46 372 L120 372 L120 60 L60 60 L60 0 L505 0 Z " />
<glyph glyph-name="currency" unicode="&#xa4;" horiz-adv-x="556" d="M32 110 L84 57 L128 100 C172 69 218 50 273 50 C330 50 383 67 428 100 L472 57 L524 110 L481 152 C512 198 529 239 529 295 C529 356 515 402 481 451 L524 494 L472 547 L428 504 C383 535 337 553 282 553 C226 553 173 538 128 504 L84 547 L32 494 L75 451 C41 403 27 359 27 300 C27 243 43 199 75 152 L32 110 Z M276 120 C180 120 95 203 97 300 C95 404 178 485 282 483 C379 485 459 398 459 303 C459 201 376 120 276 120 L276 120 Z " />
<glyph glyph-name="yen" unicode="&#xa5;" horiz-adv-x="556" d="M312 0 L312 136 L512 136 L512 196 L312 196 L312 256 L512 256 L512 316 L313 316 L555 692 L485 692 L285 373 L84 692 L1 692 L245 316 L44 316 L44 256 L247 256 L247 196 L44 196 L44 136 L247 136 L247 0 L312 0 Z " />
<glyph glyph-name="brokenbar" unicode="&#xa6;" horiz-adv-x="222" d="M81 -175 L141 -175 L141 175 L81 175 L81 -175 Z M81 325 L141 325 L141 675 L81 675 L81 325 Z " />
<glyph glyph-name="section" unicode="&#xa7;" horiz-adv-x="556" d="M260 461 C296 440 373 429 373 376 C373 324 316 304 277 282 C242 297 176 317 176 365 C176 419 220 436 260 461 L260 461 Z M405 718 C371 727 335 737 300 737 C214 737 124 702 124 601 C124 539 168 507 218 480 C170 459 111 418 111 359 C111 204 379 246 379 138 C379 65 308 40 247 40 C202 40 164 47 123 64 L123 7 C163 -8 209 -15 252 -15 C347 -15 444 31 444 139 C444 209 393 243 333 266 C381 288 438 329 438 388 C438 515 189 500 189 604 C189 666 256 682 306 682 C330 682 382 673 405 663 L405 718 Z " />
<glyph glyph-name="dieresis" unicode="&#xa8;" horiz-adv-x="278" d="M263 619 L263 707 L189 707 L189 619 L263 619 Z M89 619 L89 707 L15 707 L15 619 L89 619 Z " />
<glyph glyph-name="copyright" unicode="&#xa9;" horiz-adv-x="800" d="M401 -15 C608 -15 776 154 776 362 C776 568 608 737 401 737 C193 737 24 568 24 362 C24 154 193 -15 401 -15 L401 -15 Z M84 362 C84 545 217 677 401 677 C584 677 716 545 716 362 C716 177 584 45 401 45 C217 45 84 177 84 362 L84 362 Z M536 294 C528 238 476 198 418 198 C321 198 270 283 270 366 C270 452 317 530 416 530 C475 530 525 491 536 438 L591 438 C578 529 505 580 415 580 C287 580 210 489 210 365 C210 242 292 148 418 148 C504 148 583 203 591 294 L536 294 Z " />
<glyph glyph-name="ordfeminine" unicode="&#xaa;" horiz-adv-x="300" d="M232 574 L234 574 C236 516 219 458 139 458 C99 458 73 470 73 511 C73 580 181 570 232 572 L232 574 Z M232 612 C189 609 133 615 89 598 C50 583 23 552 23 511 C23 452 72 418 132 418 C176 418 215 442 229 467 L231 467 L234 427 L280 427 C279 442 276 457 276 473 L276 638 C277 707 232 737 160 737 C98 737 47 714 38 652 L84 652 C90 693 123 697 159 697 C205 697 228 689 232 639 L232 612 Z " />
<glyph glyph-name="guillemotleft" unicode="&#xab;" horiz-adv-x="556" d="M388 462 L282 267 L388 72 L438 72 L346 267 L439 462 L388 462 Z M208 462 L102 267 L208 72 L258 72 L166 267 L259 462 L208 462 Z " />
<glyph glyph-name="logicalnot" unicode="&#xac;" horiz-adv-x="660" d="M520 112 L580 112 L580 378 L80 378 L80 318 L520 318 L520 112 Z " />
<glyph glyph-name="uni00AD" unicode="&#xad;" horiz-adv-x="278" d="M13 237 L265 237 L265 297 L13 297 L13 237 Z " />
<glyph glyph-name="registered" unicode="&#xae;" horiz-adv-x="800" d="M401 -15 C608 -15 776 154 776 362 C776 568 608 737 401 737 C193 737 24 568 24 362 C24 154 193 -15 401 -15 L401 -15 Z M401 45 C217 45 84 177 84 362 C84 545 217 677 401 677 C584 677 716 545 716 362 C716 177 584 45 401 45 L401 45 Z M315 340 L407 340 L528 149 L590 149 L462 340 C537 346 595 377 595 460 C595 537 557 579 445 579 L260 579 L260 149 L315 149 L315 340 Z M315 390 L315 529 L433 529 C485 529 535 521 535 461 C535 380 451 390 391 390 L315 390 Z " />
<glyph glyph-name="macron" unicode="&#xaf;" horiz-adv-x="278" d="M262 647 L262 707 L17 707 L17 647 L262 647 Z " />
<glyph glyph-name="degree" unicode="&#xb0;" horiz-adv-x="400" d="M350 557 C350 639 282 707 200 707 C117 707 49 639 50 557 C50 474 117 407 200 407 C282 407 350 474 350 557 L350 557 Z M95 557 C94 617 139 662 199 662 C260 662 305 617 305 557 C305 496 260 452 200 452 C139 452 95 496 95 557 L95 557 Z " />
<glyph glyph-name="plusminus" unicode="&#xb1;" horiz-adv-x="660" d="M300 330 L80 330 L80 270 L300 270 L300 100 L360 100 L360 270 L580 270 L580 330 L360 330 L360 502 L300 502 L300 330 Z M80 0 L580 0 L580 60 L80 60 L80 0 Z " />
<glyph glyph-name="twosuperior" unicode="&#xb2;" horiz-adv-x="333" d="M315 283 L315 331 L113 331 C159 381 309 503 309 600 C309 672 247 707 175 707 C97 707 37 662 37 588 L85 588 C85 625 120 659 174 659 C222 659 255 634 255 597 C255 523 91 372 33 324 L33 283 L315 283 Z " />
<glyph glyph-name="threesuperior" unicode="&#xb3;" horiz-adv-x="333" d="M146 476 C208 485 269 463 269 400 C269 352 228 325 168 325 C116 325 76 354 75 394 L21 394 C23 315 90 277 169 277 C244 277 323 317 323 395 C323 451 281 489 224 499 L224 501 C274 511 316 544 316 595 C316 675 241 707 165 707 C95 707 27 667 27 597 L81 597 C87 633 114 659 171 659 C224 659 262 633 262 597 C262 538 204 518 146 524 L146 476 Z " />
<glyph glyph-name="acute" unicode="&#xb4;" horiz-adv-x="278" d="M178 707 L87 564 L131 564 L258 707 L178 707 Z " />
<glyph glyph-name="mu" unicode="&#xb5;" horiz-adv-x="556" d="M416 213 C416 123 371 40 272 40 C190 40 140 91 140 178 L140 502 L80 502 L80 -192 L140 -192 L140 10 C179 -5 218 -15 257 -15 C322 -15 379 14 414 76 L416 74 L419 0 L481 0 C479 34 476 74 476 113 L476 502 L416 502 L416 213 Z " />
<glyph glyph-name="paragraph" unicode="&#xb6;" horiz-adv-x="650" d="M258 -146 L323 -146 L323 662 L441 662 L441 -146 L506 -146 L506 722 L289 722 C149 722 66 652 66 526 C66 423 156 335 258 336 L258 -146 Z " />
<glyph glyph-name="periodcentered" unicode="&#xb7;" horiz-adv-x="278" d="M179 294 L99 294 L99 208 L179 208 L179 294 Z " />
<glyph glyph-name="cedilla" unicode="&#xb8;" horiz-adv-x="278" d="M28 -161 C75 -175 91 -183 141 -183 C181 -183 234 -164 234 -117 C234 -57 183 -50 133 -50 L148 5 L125 5 L97 -82 C108 -81 119 -79 130 -79 C153 -79 178 -87 178 -115 C178 -129 177 -137 166 -147 C158 -154 133 -159 124 -158 C93 -153 64 -144 35 -133 L28 -161 Z " />
<glyph glyph-name="onesuperior" unicode="&#xb9;" horiz-adv-x="333" d="M227 283 L227 692 L178 692 C149 665 113 641 74 627 L74 582 C111 598 146 618 176 644 L176 283 L227 283 Z " />
<glyph glyph-name="ordmasculine" unicode="&#xba;" horiz-adv-x="334" d="M65 578 C65 633 96 697 167 697 C237 697 269 633 269 578 C269 522 237 458 167 458 C96 458 65 522 65 578 L65 578 Z M167 737 C63 737 15 657 15 578 C15 498 63 418 167 418 C271 418 319 498 319 578 C319 657 271 737 167 737 L167 737 Z " />
<glyph glyph-name="guillemotright" unicode="&#xbb;" horiz-adv-x="556" d="M168 72 L274 267 L168 462 L118 462 L210 267 L117 72 L168 72 Z M348 72 L454 267 L348 462 L298 462 L390 267 L297 72 L348 72 Z " />
<glyph glyph-name="onequarter" unicode="&#xbc;" horiz-adv-x="834" d="M626 0 L677 0 L677 97 L740 97 L740 145 L677 145 L677 415 L615 415 L414 128 L414 97 L626 97 L626 0 Z M652 707 L599 707 L182 0 L237 0 L652 707 Z M626 145 L484 145 L624 358 L626 358 L626 145 Z M259 283 L259 692 L210 692 C181 665 145 641 106 627 L106 582 C143 598 178 618 208 644 L208 283 L259 283 Z " />
<glyph glyph-name="onehalf" unicode="&#xbd;" horiz-adv-x="834" d="M652 707 L599 707 L182 0 L237 0 L652 707 Z M259 283 L259 692 L210 692 C181 665 145 641 106 627 L106 582 C143 598 178 618 208 644 L208 283 L259 283 Z M785 0 L785 48 L583 48 C629 98 779 220 779 317 C779 389 717 424 645 424 C567 424 507 379 507 305 L555 305 C555 342 590 376 644 376 C692 376 725 351 725 314 C725 240 561 89 503 41 L503 0 L785 0 Z " />
<glyph glyph-name="threequarters" unicode="&#xbe;" horiz-adv-x="834" d="M626 0 L677 0 L677 97 L740 97 L740 145 L677 145 L677 415 L615 415 L414 128 L414 97 L626 97 L626 0 Z M652 707 L599 707 L182 0 L237 0 L652 707 Z M626 145 L484 145 L624 358 L626 358 L626 145 Z M146 476 C208 485 269 463 269 400 C269 352 228 325 168 325 C116 325 76 354 75 394 L21 394 C23 315 90 277 169 277 C244 277 323 317 323 395 C323 451 281 489 224 499 L224 501 C274 511 316 544 316 595 C316 675 241 707 165 707 C95 707 27 667 27 597 L81 597 C87 633 114 659 171 659 C224 659 262 633 262 597 C262 538 204 518 146 524 L146 476 Z " />
<glyph glyph-name="questiondown" unicode="&#xbf;" horiz-adv-x="500" d="M265 376 L265 306 C270 248 248 244 177 170 C121 116 74 71 74 -13 C74 -135 172 -192 285 -192 C322 -192 359 -189 395 -178 L395 -117 C365 -126 333 -132 301 -132 C219 -132 139 -105 139 -11 C139 115 322 173 325 268 L325 376 L265 376 Z M255 542 L255 456 L335 456 L335 542 L255 542 Z " />
<glyph glyph-name="Agrave" unicode="&#xc0;" horiz-adv-x="667" d="M173 255 L332 662 L488 255 L173 255 Z M76 0 L152 195 L511 195 L588 0 L659 0 L371 722 L295 722 L9 0 L76 0 Z M215 927 L342 784 L386 784 L295 927 L215 927 Z " />
<glyph glyph-name="Aacute" unicode="&#xc1;" horiz-adv-x="667" d="M173 255 L332 662 L488 255 L173 255 Z M76 0 L152 195 L511 195 L588 0 L659 0 L371 722 L295 722 L9 0 L76 0 Z M373 927 L282 784 L326 784 L453 927 L373 927 Z " />
<glyph glyph-name="Acircumflex" unicode="&#xc2;" horiz-adv-x="667" d="M173 255 L332 662 L488 255 L173 255 Z M76 0 L152 195 L511 195 L588 0 L659 0 L371 722 L295 722 L9 0 L76 0 Z M198 782 L244 782 L334 888 L423 782 L470 782 L371 927 L298 927 L198 782 Z " />
<glyph glyph-name="Atilde" unicode="&#xc3;" horiz-adv-x="667" d="M173 255 L332 662 L488 255 L173 255 Z M76 0 L152 195 L511 195 L588 0 L659 0 L371 722 L295 722 L9 0 L76 0 Z M434 915 C426 894 406 882 384 882 C376 882 360 887 345 891 C330 896 314 901 305 902 C247 911 209 876 197 822 L235 822 C240 842 262 851 282 851 C303 851 321 846 336 841 C352 835 367 830 381 830 C432 830 461 870 472 915 L434 915 Z " />
<glyph glyph-name="Adieresis" unicode="&#xc4;" horiz-adv-x="667" d="M173 255 L332 662 L488 255 L173 255 Z M76 0 L152 195 L511 195 L588 0 L659 0 L371 722 L295 722 L9 0 L76 0 Z M458 839 L458 927 L384 927 L384 839 L458 839 Z M284 839 L284 927 L210 927 L210 839 L284 839 Z " />
<glyph glyph-name="Aring" unicode="&#xc5;" horiz-adv-x="667" d="M173 255 L332 662 L488 255 L173 255 Z M76 0 L152 195 L511 195 L588 0 L659 0 L371 722 L295 722 L9 0 L76 0 Z M246 869 C246 822 287 781 334 781 C382 781 422 822 422 869 C422 917 382 957 334 957 C287 957 246 917 246 869 L246 869 Z M389 869 C389 842 361 814 334 814 C306 814 279 842 279 869 C279 898 306 924 334 924 C362 924 389 897 389 869 L389 869 Z " />
<glyph glyph-name="AE" unicode="&#xc6;" horiz-adv-x="1000" d="M426 722 L8 0 L80 0 L194 196 L544 196 L578 0 L934 0 L934 60 L635 60 L588 343 L907 343 L907 403 L579 403 L536 662 L925 662 L925 722 L426 722 Z M465 662 L467 662 L536 256 L228 256 L465 662 Z " />
<glyph glyph-name="Ccedilla" unicode="&#xc7;" horiz-adv-x="667" d="M248 -161 C295 -175 311 -183 361 -183 C401 -183 454 -164 454 -117 C454 -57 403 -50 353 -50 L363 -14 C365 -15 369 -15 372 -15 C488 -15 599 54 620 175 L550 175 C532 85 452 45 372 45 C187 45 131 213 131 361 C131 509 187 677 372 677 C454 677 530 641 542 553 L612 553 C602 683 490 737 372 737 C154 737 61 559 61 361 C61 171 144 4 340 -12 L317 -82 C328 -81 339 -79 350 -79 C373 -79 398 -87 398 -115 C398 -129 397 -137 386 -147 C378 -154 353 -159 344 -158 C313 -153 284 -144 255 -133 L248 -161 Z " />
<glyph glyph-name="Egrave" unicode="&#xc8;" horiz-adv-x="611" d="M546 0 L546 60 L167 60 L167 343 L517 343 L517 403 L167 403 L167 662 L531 662 L531 722 L102 722 L102 0 L546 0 Z M187 927 L314 784 L358 784 L267 927 L187 927 Z " />
<glyph glyph-name="Eacute" unicode="&#xc9;" horiz-adv-x="611" d="M546 0 L546 60 L167 60 L167 343 L517 343 L517 403 L167 403 L167 662 L531 662 L531 722 L102 722 L102 0 L546 0 Z M345 927 L254 784 L298 784 L425 927 L345 927 Z " />
<glyph glyph-name="Ecircumflex" unicode="&#xca;" horiz-adv-x="611" d="M546 0 L546 60 L167 60 L167 343 L517 343 L517 403 L167 403 L167 662 L531 662 L531 722 L102 722 L102 0 L546 0 Z M170 782 L216 782 L306 888 L395 782 L442 782 L343 927 L270 927 L170 782 Z " />
<glyph glyph-name="Edieresis" unicode="&#xcb;" horiz-adv-x="611" d="M546 0 L546 60 L167 60 L167 343 L517 343 L517 403 L167 403 L167 662 L531 662 L531 722 L102 722 L102 0 L546 0 Z M430 839 L430 927 L356 927 L356 839 L430 839 Z M256 839 L256 927 L182 927 L182 839 L256 839 Z " />
<glyph glyph-name="Igrave" unicode="&#xcc;" horiz-adv-x="278" d="M172 0 L172 725 L107 725 L107 0 L172 0 Z M20 927 L147 784 L191 784 L100 927 L20 927 Z " />
<glyph glyph-name="Iacute" unicode="&#xcd;" horiz-adv-x="278" d="M172 0 L172 725 L107 725 L107 0 L172 0 Z M178 927 L87 784 L131 784 L258 927 L178 927 Z " />
<glyph glyph-name="Icircumflex" unicode="&#xce;" horiz-adv-x="278" d="M172 0 L172 725 L107 725 L107 0 L172 0 Z M3 782 L49 782 L139 888 L228 782 L275 782 L176 927 L103 927 L3 782 Z " />
<glyph glyph-name="Idieresis" unicode="&#xcf;" horiz-adv-x="278" d="M172 0 L172 725 L107 725 L107 0 L172 0 Z M263 839 L263 927 L189 927 L189 839 L263 839 Z M89 839 L89 927 L15 927 L15 839 L89 839 Z " />
<glyph glyph-name="Eth" unicode="&#xd0;" horiz-adv-x="722" d="M156 662 L258 662 C463 668 588 574 588 361 C588 179 505 60 302 60 L156 60 L156 375 L372 375 L372 420 L156 420 L156 662 Z M91 0 L286 0 C523 0 658 122 658 361 C658 600 523 722 286 722 L91 722 L91 420 L23 420 L23 375 L91 375 L91 0 Z " />
<glyph glyph-name="Ntilde" unicode="&#xd1;" horiz-adv-x="722" d="M92 0 L157 0 L157 624 L159 624 L549 0 L631 0 L631 722 L566 722 L566 87 L564 87 L166 722 L92 722 L92 0 Z M461 915 C453 894 433 882 411 882 C403 882 387 887 372 891 C357 896 341 901 332 902 C274 911 236 876 224 822 L262 822 C267 842 289 851 309 851 C330 851 348 846 363 841 C379 835 394 830 408 830 C459 830 488 870 499 915 L461 915 Z " />
<glyph glyph-name="Ograve" unicode="&#xd2;" horiz-adv-x="778" d="M137 361 C137 519 209 677 389 677 C569 677 641 519 641 361 C641 203 569 45 389 45 C209 45 137 203 137 361 L137 361 Z M711 361 C711 586 596 737 389 737 C182 737 67 586 67 361 C67 136 182 -15 389 -15 C596 -15 711 136 711 361 L711 361 Z M270 927 L397 784 L441 784 L350 927 L270 927 Z " />
<glyph glyph-name="Oacute" unicode="&#xd3;" horiz-adv-x="778" d="M137 361 C137 519 209 677 389 677 C569 677 641 519 641 361 C641 203 569 45 389 45 C209 45 137 203 137 361 L137 361 Z M711 361 C711 586 596 737 389 737 C182 737 67 586 67 361 C67 136 182 -15 389 -15 C596 -15 711 136 711 361 L711 361 Z M428 927 L337 784 L381 784 L508 927 L428 927 Z " />
<glyph glyph-name="Ocircumflex" unicode="&#xd4;" horiz-adv-x="778" d="M137 361 C137 519 209 677 389 677 C569 677 641 519 641 361 C641 203 569 45 389 45 C209 45 137 203 137 361 L137 361 Z M711 361 C711 586 596 737 389 737 C182 737 67 586 67 361 C67 136 182 -15 389 -15 C596 -15 711 136 711 361 L711 361 Z M253 782 L299 782 L389 888 L478 782 L525 782 L426 927 L353 927 L253 782 Z " />
<glyph glyph-name="Otilde" unicode="&#xd5;" horiz-adv-x="778" d="M137 361 C137 519 209 677 389 677 C569 677 641 519 641 361 C641 203 569 45 389 45 C209 45 137 203 137 361 L137 361 Z M711 361 C711 586 596 737 389 737 C182 737 67 586 67 361 C67 136 182 -15 389 -15 C596 -15 711 136 711 361 L711 361 Z M489 915 C481 894 461 882 439 882 C431 882 415 887 400 891 C385 896 369 901 360 902 C302 911 264 876 252 822 L290 822 C295 842 317 851 337 851 C358 851 376 846 391 841 C407 835 422 830 436 830 C487 830 516 870 527 915 L489 915 Z " />
<glyph glyph-name="Odieresis" unicode="&#xd6;" horiz-adv-x="778" d="M137 361 C137 519 209 677 389 677 C569 677 641 519 641 361 C641 203 569 45 389 45 C209 45 137 203 137 361 L137 361 Z M711 361 C711 586 596 737 389 737 C182 737 67 586 67 361 C67 136 182 -15 389 -15 C596 -15 711 136 711 361 L711 361 Z M513 839 L513 927 L439 927 L439 839 L513 839 Z M339 839 L339 927 L265 927 L265 839 L339 839 Z " />
<glyph glyph-name="multiply" unicode="&#xd7;" horiz-adv-x="660" d="M331 216 L543 6 L580 42 L368 253 L580 464 L543 502 L331 290 L117 502 L80 464 L294 253 L80 42 L117 6 L331 216 Z " />
<glyph glyph-name="Oslash" unicode="&#xd8;" horiz-adv-x="778" d="M186 160 C152 215 137 288 137 361 C137 519 209 677 389 677 C470 677 530 645 571 593 L186 160 Z M163 76 C218 17 294 -15 389 -15 C596 -15 711 136 711 361 C711 464 687 551 641 615 L726 712 L699 737 L617 645 C563 703 486 737 389 737 C182 737 67 586 67 361 C67 257 91 169 138 106 L54 12 L83 -15 L163 76 Z M593 561 C626 504 641 433 641 361 C641 203 569 45 389 45 C308 45 249 77 209 127 L593 561 Z " />
<glyph glyph-name="Ugrave" unicode="&#xd9;" horiz-adv-x="722" d="M97 722 L97 254 C99 99 186 -15 361 -15 C536 -15 623 99 625 254 L625 722 L560 722 L560 255 C555 124 480 45 361 45 C242 45 167 124 162 255 L162 722 L97 722 Z M242 927 L369 784 L413 784 L322 927 L242 927 Z " />
<glyph glyph-name="Uacute" unicode="&#xda;" horiz-adv-x="722" d="M97 722 L97 254 C99 99 186 -15 361 -15 C536 -15 623 99 625 254 L625 722 L560 722 L560 255 C555 124 480 45 361 45 C242 45 167 124 162 255 L162 722 L97 722 Z M400 927 L309 784 L353 784 L480 927 L400 927 Z " />
<glyph glyph-name="Ucircumflex" unicode="&#xdb;" horiz-adv-x="722" d="M97 722 L97 254 C99 99 186 -15 361 -15 C536 -15 623 99 625 254 L625 722 L560 722 L560 255 C555 124 480 45 361 45 C242 45 167 124 162 255 L162 722 L97 722 Z M225 782 L271 782 L361 888 L450 782 L497 782 L398 927 L325 927 L225 782 Z " />
<glyph glyph-name="Udieresis" unicode="&#xdc;" horiz-adv-x="722" d="M97 722 L97 254 C99 99 186 -15 361 -15 C536 -15 623 99 625 254 L625 722 L560 722 L560 255 C555 124 480 45 361 45 C242 45 167 124 162 255 L162 722 L97 722 Z M485 839 L485 927 L411 927 L411 839 L485 839 Z M311 839 L311 927 L237 927 L237 839 L311 839 Z " />
<glyph glyph-name="Yacute" unicode="&#xdd;" horiz-adv-x="611" d="M274 0 L339 0 L339 314 L603 722 L533 722 L312 373 L91 722 L8 722 L274 312 L274 0 Z M345 927 L254 784 L298 784 L425 927 L345 927 Z " />
<glyph glyph-name="Thorn" unicode="&#xde;" horiz-adv-x="611" d="M165 507 L323 507 C420 507 506 476 506 363 C506 250 420 219 323 219 L165 219 L165 507 Z M100 0 L165 0 L165 159 L308 159 C442 159 576 191 576 363 C576 535 442 567 308 567 L165 567 L165 722 L100 722 L100 0 Z " />
<glyph glyph-name="germandbls" unicode="&#xdf;" horiz-adv-x="611" d="M147 488 C148 576 175 682 285 682 C344 682 407 651 407 584 C407 515 289 481 289 395 C289 264 505 266 505 151 C505 76 462 40 396 40 C339 40 299 80 301 141 L236 141 C240 44 302 -15 398 -15 C492 -15 570 47 570 154 C570 309 354 304 354 402 C354 451 472 503 472 582 C472 683 385 737 292 737 C150 737 88 644 87 509 L87 0 L147 0 L147 488 Z " />
<glyph glyph-name="agrave" unicode="&#xe0;" horiz-adv-x="500" d="M101 140 C101 266 279 250 364 253 C370 148 345 40 214 40 C153 40 101 72 101 140 L101 140 Z M364 308 C291 304 204 314 137 285 C77 260 36 208 36 140 C36 42 110 -15 203 -15 C271 -15 338 25 360 67 L363 74 L365 74 L367 0 L429 0 C427 34 423 74 424 113 L424 351 C426 466 357 517 246 517 C150 517 73 478 58 375 L122 375 C130 443 182 462 245 462 C316 462 358 436 364 354 L364 308 Z M131 707 L258 564 L302 564 L211 707 L131 707 Z " />
<glyph glyph-name="aacute" unicode="&#xe1;" horiz-adv-x="500" d="M101 140 C101 266 279 250 364 253 C370 148 345 40 214 40 C153 40 101 72 101 140 L101 140 Z M364 308 C291 304 204 314 137 285 C77 260 36 208 36 140 C36 42 110 -15 203 -15 C271 -15 338 25 360 67 L363 74 L365 74 L367 0 L429 0 C427 34 423 74 424 113 L424 351 C426 466 357 517 246 517 C150 517 73 478 58 375 L122 375 C130 443 182 462 245 462 C316 462 358 436 364 354 L364 308 Z M289 707 L198 564 L242 564 L369 707 L289 707 Z " />
<glyph glyph-name="acircumflex" unicode="&#xe2;" horiz-adv-x="500" d="M101 140 C101 266 279 250 364 253 C370 148 345 40 214 40 C153 40 101 72 101 140 L101 140 Z M364 308 C291 304 204 314 137 285 C77 260 36 208 36 140 C36 42 110 -15 203 -15 C271 -15 338 25 360 67 L363 74 L365 74 L367 0 L429 0 C427 34 423 74 424 113 L424 351 C426 466 357 517 246 517 C150 517 73 478 58 375 L122 375 C130 443 182 462 245 462 C316 462 358 436 364 354 L364 308 Z M114 562 L160 562 L250 668 L339 562 L386 562 L287 707 L214 707 L114 562 Z " />
<glyph glyph-name="atilde" unicode="&#xe3;" horiz-adv-x="500" d="M101 140 C101 266 279 250 364 253 C370 148 345 40 214 40 C153 40 101 72 101 140 L101 140 Z M364 308 C291 304 204 314 137 285 C77 260 36 208 36 140 C36 42 110 -15 203 -15 C271 -15 338 25 360 67 L363 74 L365 74 L367 0 L429 0 C427 34 423 74 424 113 L424 351 C426 466 357 517 246 517 C150 517 73 478 58 375 L122 375 C130 443 182 462 245 462 C316 462 358 436 364 354 L364 308 Z M350 695 C342 674 322 662 300 662 C292 662 276 667 261 671 C246 676 230 681 221 682 C163 691 125 656 113 602 L151 602 C156 622 178 631 198 631 C219 631 237 626 252 621 C268 615 283 610 297 610 C348 610 377 650 388 695 L350 695 Z " />
<glyph glyph-name="adieresis" unicode="&#xe4;" horiz-adv-x="500" d="M101 140 C101 266 279 250 364 253 C370 148 345 40 214 40 C153 40 101 72 101 140 L101 140 Z M364 308 C291 304 204 314 137 285 C77 260 36 208 36 140 C36 42 110 -15 203 -15 C271 -15 338 25 360 67 L363 74 L365 74 L367 0 L429 0 C427 34 423 74 424 113 L424 351 C426 466 357 517 246 517 C150 517 73 478 58 375 L122 375 C130 443 182 462 245 462 C316 462 358 436 364 354 L364 308 Z M374 619 L374 707 L300 707 L300 619 L374 619 Z M200 619 L200 707 L126 707 L126 619 L200 619 Z " />
<glyph glyph-name="aring" unicode="&#xe5;" horiz-adv-x="500" d="M101 140 C101 266 279 250 364 253 C370 148 345 40 214 40 C153 40 101 72 101 140 L101 140 Z M364 308 C291 304 204 314 137 285 C77 260 36 208 36 140 C36 42 110 -15 203 -15 C271 -15 338 25 360 67 L363 74 L365 74 L367 0 L429 0 C427 34 423 74 424 113 L424 351 C426 466 357 517 246 517 C150 517 73 478 58 375 L122 375 C130 443 182 462 245 462 C316 462 358 436 364 354 L364 308 Z M162 649 C162 602 203 561 250 561 C298 561 338 602 338 649 C338 697 298 737 250 737 C203 737 162 697 162 649 L162 649 Z M305 649 C305 622 277 594 250 594 C222 594 195 622 195 649 C195 678 222 704 250 704 C278 704 305 677 305 649 L305 649 Z " />
<glyph glyph-name="ae" unicode="&#xe6;" horiz-adv-x="833" d="M428 299 C425 373 477 462 567 462 C673 462 713 387 713 299 L428 299 Z M122 375 C130 443 182 462 245 462 C316 462 357 436 363 354 L363 299 C291 296 204 306 137 277 C80 252 36 208 36 140 C36 42 110 -15 203 -15 C293 -9 369 26 398 104 C428 29 493 -9 565 -15 C666 -15 741 40 772 160 L709 160 C694 91 635 40 564 40 C459 40 426 143 428 244 L778 244 C778 394 717 517 559 517 C501 514 436 483 405 412 L403 412 C388 480 313 512 246 517 C150 517 73 478 58 375 L122 375 Z M363 243 C366 140 344 40 216 40 C166 40 101 67 101 126 C101 240 194 244 286 244 L363 243 L363 243 Z " />
<glyph glyph-name="ccedilla" unicode="&#xe7;" horiz-adv-x="500" d="M158 -161 C205 -175 221 -183 271 -183 C311 -183 364 -164 364 -117 C364 -57 313 -50 263 -50 L273 -14 C382 -13 446 44 462 157 L397 157 C392 88 338 40 260 40 C168 40 111 137 111 252 C111 366 168 462 260 462 C343 462 392 425 397 348 L462 348 C457 455 373 517 270 517 C121 517 46 387 46 251 C46 120 110 -5 249 -14 L227 -82 C238 -81 249 -79 260 -79 C283 -79 308 -87 308 -115 C308 -129 307 -137 296 -147 C288 -154 263 -159 254 -158 C223 -153 194 -144 165 -133 L158 -161 Z " />
<glyph glyph-name="egrave" unicode="&#xe8;" horiz-adv-x="556" d="M503 237 C503 394 442 517 274 517 C125 517 50 387 50 251 C50 114 120 -15 270 -15 C391 -15 466 40 497 160 L434 160 C419 91 360 40 289 40 C166 40 117 130 115 237 L503 237 Z M117 292 C125 380 177 462 275 462 C379 462 431 389 438 292 L117 292 Z M159 707 L286 564 L330 564 L239 707 L159 707 Z " />
<glyph glyph-name="eacute" unicode="&#xe9;" horiz-adv-x="556" d="M503 237 C503 394 442 517 274 517 C125 517 50 387 50 251 C50 114 120 -15 270 -15 C391 -15 466 40 497 160 L434 160 C419 91 360 40 289 40 C166 40 117 130 115 237 L503 237 Z M117 292 C125 380 177 462 275 462 C379 462 431 389 438 292 L117 292 Z M317 707 L226 564 L270 564 L397 707 L317 707 Z " />
<glyph glyph-name="ecircumflex" unicode="&#xea;" horiz-adv-x="556" d="M503 237 C503 394 442 517 274 517 C125 517 50 387 50 251 C50 114 120 -15 270 -15 C391 -15 466 40 497 160 L434 160 C419 91 360 40 289 40 C166 40 117 130 115 237 L503 237 Z M117 292 C125 380 177 462 275 462 C379 462 431 389 438 292 L117 292 Z M142 562 L188 562 L278 668 L367 562 L414 562 L315 707 L242 707 L142 562 Z " />
<glyph glyph-name="edieresis" unicode="&#xeb;" horiz-adv-x="556" d="M503 237 C503 394 442 517 274 517 C125 517 50 387 50 251 C50 114 120 -15 270 -15 C391 -15 466 40 497 160 L434 160 C419 91 360 40 289 40 C166 40 117 130 115 237 L503 237 Z M117 292 C125 380 177 462 275 462 C379 462 431 389 438 292 L117 292 Z M402 619 L402 707 L328 707 L328 619 L402 619 Z M228 619 L228 707 L154 707 L154 619 L228 619 Z " />
<glyph glyph-name="igrave" unicode="&#xec;" horiz-adv-x="222" d="M141 0 L141 502 L81 502 L81 0 L141 0 Z M-8 707 L119 564 L163 564 L72 707 L-8 707 Z " />
<glyph glyph-name="iacute" unicode="&#xed;" horiz-adv-x="222" d="M141 0 L141 502 L81 502 L81 0 L141 0 Z M150 707 L59 564 L103 564 L230 707 L150 707 Z " />
<glyph glyph-name="icircumflex" unicode="&#xee;" horiz-adv-x="222" d="M141 0 L141 502 L81 502 L81 0 L141 0 Z M-25 562 L21 562 L111 668 L200 562 L247 562 L148 707 L75 707 L-25 562 Z " />
<glyph glyph-name="idieresis" unicode="&#xef;" horiz-adv-x="222" d="M141 0 L141 502 L81 502 L81 0 L141 0 Z M235 619 L235 707 L161 707 L161 619 L235 619 Z M61 619 L61 707 L-13 707 L-13 619 L61 619 Z " />
<glyph glyph-name="eth" unicode="&#xf0;" horiz-adv-x="556" d="M155 697 C205 683 218 678 250 662 L167 611 L196 582 L289 639 C401 570 442 452 450 363 L448 361 C431 403 386 490 270 490 C118 490 44 363 44 237 C44 112 118 -15 278 -15 C430 -15 512 92 512 268 C512 528 400 626 337 669 L422 722 L392 750 L299 692 C254 715 233 723 172 737 L155 697 Z M109 237 C109 326 157 438 278 438 C399 438 447 326 447 237 C447 149 399 37 278 37 C157 37 109 149 109 237 L109 237 Z " />
<glyph glyph-name="ntilde" unicode="&#xf1;" horiz-adv-x="556" d="M140 289 C140 379 185 462 284 462 C366 462 416 411 416 324 L416 0 L476 0 L476 314 C476 372 463 517 299 517 C234 517 177 488 142 426 L140 428 L137 502 L75 502 C77 468 80 428 80 389 L80 0 L140 0 L140 289 Z M378 695 C370 674 350 662 328 662 C320 662 304 667 289 671 C274 676 258 681 249 682 C191 691 153 656 141 602 L179 602 C184 622 206 631 226 631 C247 631 265 626 280 621 C296 615 311 610 325 610 C376 610 405 650 416 695 L378 695 Z " />
<glyph glyph-name="ograve" unicode="&#xf2;" horiz-adv-x="556" d="M447 251 C447 158 399 40 278 40 C157 40 109 158 109 251 C109 344 157 462 278 462 C399 462 447 344 447 251 L447 251 Z M278 517 C118 517 44 383 44 251 C44 119 118 -15 278 -15 C438 -15 512 119 512 251 C512 383 438 517 278 517 L278 517 Z M159 707 L286 564 L330 564 L239 707 L159 707 Z " />
<glyph glyph-name="oacute" unicode="&#xf3;" horiz-adv-x="556" d="M447 251 C447 158 399 40 278 40 C157 40 109 158 109 251 C109 344 157 462 278 462 C399 462 447 344 447 251 L447 251 Z M278 517 C118 517 44 383 44 251 C44 119 118 -15 278 -15 C438 -15 512 119 512 251 C512 383 438 517 278 517 L278 517 Z M317 707 L226 564 L270 564 L397 707 L317 707 Z " />
<glyph glyph-name="ocircumflex" unicode="&#xf4;" horiz-adv-x="556" d="M447 251 C447 158 399 40 278 40 C157 40 109 158 109 251 C109 344 157 462 278 462 C399 462 447 344 447 251 L447 251 Z M278 517 C118 517 44 383 44 251 C44 119 118 -15 278 -15 C438 -15 512 119 512 251 C512 383 438 517 278 517 L278 517 Z M142 562 L188 562 L278 668 L367 562 L414 562 L315 707 L242 707 L142 562 Z " />
<glyph glyph-name="otilde" unicode="&#xf5;" horiz-adv-x="556" d="M447 251 C447 158 399 40 278 40 C157 40 109 158 109 251 C109 344 157 462 278 462 C399 462 447 344 447 251 L447 251 Z M278 517 C118 517 44 383 44 251 C44 119 118 -15 278 -15 C438 -15 512 119 512 251 C512 383 438 517 278 517 L278 517 Z M378 695 C370 674 350 662 328 662 C320 662 304 667 289 671 C274 676 258 681 249 682 C191 691 153 656 141 602 L179 602 C184 622 206 631 226 631 C247 631 265 626 280 621 C296 615 311 610 325 610 C376 610 405 650 416 695 L378 695 Z " />
<glyph glyph-name="odieresis" unicode="&#xf6;" horiz-adv-x="556" d="M447 251 C447 158 399 40 278 40 C157 40 109 158 109 251 C109 344 157 462 278 462 C399 462 447 344 447 251 L447 251 Z M278 517 C118 517 44 383 44 251 C44 119 118 -15 278 -15 C438 -15 512 119 512 251 C512 383 438 517 278 517 L278 517 Z M402 619 L402 707 L328 707 L328 619 L402 619 Z M228 619 L228 707 L154 707 L154 619 L228 619 Z " />
<glyph glyph-name="divide" unicode="&#xf7;" horiz-adv-x="660" d="M80 221 L580 221 L580 281 L80 281 L80 221 Z M368 0 L368 88 L293 88 L293 0 L368 0 Z M368 414 L368 502 L293 502 L293 414 L368 414 Z " />
<glyph glyph-name="oslash" unicode="&#xf8;" horiz-adv-x="556" d="M140 127 C118 166 109 211 109 251 C109 344 157 462 278 462 C330 462 368 440 395 407 L140 127 Z M415 377 C437 339 447 293 447 251 C447 158 399 40 278 40 C224 40 185 64 159 97 L415 377 Z M33 10 L57 -15 L117 50 C154 11 208 -15 278 -15 C438 -15 512 119 512 251 C512 314 495 377 460 426 L520 492 L496 517 L437 453 C400 492 347 517 278 517 C118 517 44 383 44 251 C44 189 60 127 95 78 L33 10 Z " />
<glyph glyph-name="ugrave" unicode="&#xf9;" horiz-adv-x="556" d="M416 213 C416 123 371 40 272 40 C190 40 140 91 140 178 L140 502 L80 502 L80 188 C80 130 93 -15 257 -15 C322 -15 379 14 414 76 L416 74 L419 0 L481 0 C479 34 476 74 476 113 L476 502 L416 502 L416 213 Z M159 707 L286 564 L330 564 L239 707 L159 707 Z " />
<glyph glyph-name="uacute" unicode="&#xfa;" horiz-adv-x="556" d="M416 213 C416 123 371 40 272 40 C190 40 140 91 140 178 L140 502 L80 502 L80 188 C80 130 93 -15 257 -15 C322 -15 379 14 414 76 L416 74 L419 0 L481 0 C479 34 476 74 476 113 L476 502 L416 502 L416 213 Z M317 707 L226 564 L270 564 L397 707 L317 707 Z " />
<glyph glyph-name="ucircumflex" unicode="&#xfb;" horiz-adv-x="556" d="M416 213 C416 123 371 40 272 40 C190 40 140 91 140 178 L140 502 L80 502 L80 188 C80 130 93 -15 257 -15 C322 -15 379 14 414 76 L416 74 L419 0 L481 0 C479 34 476 74 476 113 L476 502 L416 502 L416 213 Z M142 562 L188 562 L278 668 L367 562 L414 562 L315 707 L242 707 L142 562 Z " />
<glyph glyph-name="udieresis" unicode="&#xfc;" horiz-adv-x="556" d="M416 213 C416 123 371 40 272 40 C190 40 140 91 140 178 L140 502 L80 502 L80 188 C80 130 93 -15 257 -15 C322 -15 379 14 414 76 L416 74 L419 0 L481 0 C479 34 476 74 476 113 L476 502 L416 502 L416 213 Z M402 619 L402 707 L328 707 L328 619 L402 619 Z M228 619 L228 707 L154 707 L154 619 L228 619 Z " />
<glyph glyph-name="yacute" unicode="&#xfd;" horiz-adv-x="500" d="M8 502 L216 0 L140 -192 L206 -192 L483 502 L418 502 L250 82 L81 502 L8 502 Z M289 707 L198 564 L242 564 L369 707 L289 707 Z " />
<glyph glyph-name="thorn" unicode="&#xfe;" horiz-adv-x="556" d="M130 263 C130 365 175 462 292 462 C406 462 445 356 445 260 C445 167 416 40 301 40 C170 40 130 149 130 263 L130 263 Z M130 78 L132 78 C173 18 234 -15 307 -15 C453 -15 510 127 510 253 C510 383 453 517 304 517 C237 517 167 485 132 426 L130 428 L130 722 L70 722 L70 -192 L130 -192 L130 78 Z " />
<glyph glyph-name="ydieresis" unicode="&#xff;" horiz-adv-x="500" d="M8 502 L216 0 L140 -192 L206 -192 L483 502 L418 502 L250 82 L81 502 L8 502 Z M374 619 L374 707 L300 707 L300 619 L374 619 Z M200 619 L200 707 L126 707 L126 619 L200 619 Z " />
<glyph glyph-name="dotlessi" unicode="&#x131;" horiz-adv-x="222" d="M141 0 L141 502 L81 502 L81 0 L141 0 Z " />
<glyph glyph-name="Lslash" unicode="&#x141;" horiz-adv-x="556" d="M528 0 L528 60 L165 60 L165 425 L259 462 L259 502 L165 465 L165 722 L100 722 L100 439 L6 402 L6 362 L100 399 L100 0 L528 0 Z " />
<glyph glyph-name="lslash" unicode="&#x142;" horiz-adv-x="222" d="M81 722 L81 448 L5 417 L5 383 L81 413 L81 0 L141 0 L141 437 L217 468 L217 502 L141 472 L141 722 L81 722 Z " />
<glyph glyph-name="OE" unicode="&#x152;" horiz-adv-x="1000" d="M131 361 C131 519 203 677 363 677 C486 677 554 620 553 474 L553 221 C553 110 480 49 363 45 C203 45 131 203 131 361 L131 361 Z M555 0 L946 0 L946 60 L620 60 L620 343 L917 343 L917 403 L620 403 L620 662 L931 662 L931 722 L555 722 L555 659 C495 720 432 737 363 737 C176 737 61 586 61 361 C61 136 176 -15 363 -15 C430 -15 508 11 551 69 L555 69 L555 0 Z " />
<glyph glyph-name="oe" unicode="&#x153;" horiz-adv-x="889" d="M425 256 C425 155 393 39 269 40 C157 40 109 158 109 251 C109 344 157 462 269 462 C389 464 425 349 425 256 L425 256 Z M490 292 C487 373 539 462 629 462 C735 462 775 387 775 292 L490 292 Z M840 237 C840 394 779 517 621 517 C556 517 483 476 456 392 C424 470 359 517 278 517 C118 517 44 383 44 251 C44 119 118 -15 278 -15 C354 -15 425 27 455 110 L457 110 C479 25 552 -15 627 -15 C728 -15 803 40 834 160 L771 160 C756 91 697 40 626 40 C521 37 488 143 490 237 L840 237 Z " />
<glyph glyph-name="Scaron" unicode="&#x160;" horiz-adv-x="611" d="M553 190 C553 439 145 346 145 551 C145 639 238 677 313 677 C387 677 468 654 470 565 L540 565 C524 704 400 737 305 737 C191 737 75 668 75 542 C75 386 253 349 370 310 C431 290 483 256 483 184 C483 92 390 45 309 45 C212 45 130 77 128 188 L58 188 C61 69 158 -15 273 -15 C418 -15 553 33 553 190 L553 190 Z M442 927 L396 927 L306 821 L217 927 L170 927 L269 782 L342 782 L442 927 Z " />
<glyph glyph-name="scaron" unicode="&#x161;" horiz-adv-x="500" d="M63 377 C63 284 143 261 222 242 C302 224 381 212 381 140 C381 70 314 40 250 40 C182 40 116 62 111 137 L46 137 C48 26 148 -15 235 -15 C341 -15 446 36 446 149 C446 203 413 248 361 266 C225 314 128 307 128 381 C128 440 185 462 241 462 C303 462 359 441 365 378 L430 378 C422 484 342 517 247 517 C159 517 63 481 63 377 L63 377 Z M386 707 L340 707 L250 601 L161 707 L114 707 L213 562 L286 562 L386 707 Z " />
<glyph glyph-name="Ydieresis" unicode="&#x178;" horiz-adv-x="611" d="M274 0 L339 0 L339 314 L603 722 L533 722 L312 373 L91 722 L8 722 L274 312 L274 0 Z M430 839 L430 927 L356 927 L356 839 L430 839 Z M256 839 L256 927 L182 927 L182 839 L256 839 Z " />
<glyph glyph-name="Zcaron" unicode="&#x17d;" horiz-adv-x="556" d="M517 0 L517 60 L115 60 L517 662 L517 722 L39 722 L39 662 L440 662 L39 60 L39 0 L517 0 Z M414 927 L368 927 L278 821 L189 927 L142 927 L241 782 L314 782 L414 927 Z " />
<glyph glyph-name="zcaron" unicode="&#x17e;" horiz-adv-x="444" d="M40 0 L404 0 L404 55 L113 55 L404 447 L404 502 L40 502 L40 447 L333 447 L40 55 L40 0 Z M358 707 L312 707 L222 601 L133 707 L86 707 L185 562 L258 562 L358 707 Z " />
<glyph glyph-name="florin" unicode="&#x192;" horiz-adv-x="556" d="M233 408 L149 -24 C140 -61 130 -121 91 -133 C78 -137 63 -137 43 -132 L32 -186 C47 -190 62 -192 78 -192 C205 -192 211 -48 229 45 L299 408 L406 408 L414 468 L308 468 L328 568 C336 615 351 647 411 647 C426 647 441 646 455 643 L463 700 C439 704 416 707 392 707 C290 707 270 617 258 548 L242 468 L148 468 L139 408 L233 408 Z " />
<glyph glyph-name="circumflex" unicode="&#x2c6;" horiz-adv-x="278" d="M3 562 L49 562 L139 668 L228 562 L275 562 L176 707 L103 707 L3 562 Z " />
<glyph glyph-name="caron" unicode="&#x2c7;" horiz-adv-x="278" d="M275 707 L229 707 L139 601 L50 707 L3 707 L102 562 L175 562 L275 707 Z " />
<glyph glyph-name="uni02C9" unicode="&#x2c9;" horiz-adv-x="278" d="M262 647 L262 707 L17 707 L17 647 L262 647 Z " />
<glyph glyph-name="breve" unicode="&#x2d8;" horiz-adv-x="278" d="M243 707 C230 665 175 655 136 655 C98 655 47 663 36 707 L17 707 C18 634 71 609 136 609 C207 609 256 628 261 707 L243 707 Z " />
<glyph glyph-name="dotaccent" unicode="&#x2d9;" horiz-adv-x="278" d="M176 619 L176 707 L102 707 L102 619 L176 619 Z " />
<glyph glyph-name="ring" unicode="&#x2da;" horiz-adv-x="278" d="M51 649 C51 602 92 561 139 561 C187 561 227 602 227 649 C227 697 187 737 139 737 C92 737 51 697 51 649 L51 649 Z M194 649 C194 622 166 594 139 594 C111 594 84 622 84 649 C84 678 111 704 139 704 C167 704 194 677 194 649 L194 649 Z " />
<glyph glyph-name="ogonek" unicode="&#x2db;" horiz-adv-x="278" d="M246 -126 C212 -139 191 -146 144 -146 C117 -146 75 -125 75 -89 C75 -59 128 -26 191 -2 L191 0 L138 0 C90 -12 20 -50 20 -98 C20 -166 77 -191 124 -191 C158 -191 219 -180 246 -169 L246 -126 Z " />
<glyph glyph-name="tilde" unicode="&#x2dc;" horiz-adv-x="278" d="M239 695 C231 674 211 662 189 662 C181 662 165 667 150 671 C135 676 119 681 110 682 C52 691 14 656 2 602 L40 602 C45 622 67 631 87 631 C108 631 126 626 141 621 C157 615 172 610 186 610 C237 610 266 650 277 695 L239 695 Z " />
<glyph glyph-name="hungarumlaut" unicode="&#x2dd;" horiz-adv-x="556" d="M125 566 L172 566 L301 707 L220 707 L125 566 Z M256 566 L303 566 L432 707 L351 707 L256 566 Z " />
<glyph glyph-name="uni03A9" unicode="&#x3a9;" horiz-adv-x="724" d="M204 52 L52 52 L52 0 L287 0 L287 39 C208 89 129 212 129 362 C129 523 221 654 364 654 C516 654 593 497 593 364 C593 204 516 91 436 39 L436 0 L671 0 L671 52 L517 52 L517 55 C586 112 657 226 657 375 C657 553 541 707 365 707 C197 707 66 571 66 371 C66 229 131 119 204 55 L204 52 Z " />
<glyph glyph-name="uni03BC" unicode="&#x3bc;" horiz-adv-x="556" d="M416 213 C416 123 371 40 272 40 C190 40 140 91 140 178 L140 502 L80 502 L80 -192 L140 -192 L140 10 C179 -5 218 -15 257 -15 C322 -15 379 14 414 76 L416 74 L419 0 L481 0 C479 34 476 74 476 113 L476 502 L416 502 L416 213 Z " />
<glyph glyph-name="pi" unicode="&#x3c0;" horiz-adv-x="564" d="M536 462 L543 516 L149 516 C75 516 35 506 10 491 L21 449 C42 457 70 462 136 462 C131 323 100 105 61 0 L123 0 C161 92 193 328 199 462 L390 462 L390 140 C390 55 398 15 407 0 L468 0 C461 26 453 61 453 147 L453 462 L536 462 Z " />
<glyph glyph-name="endash" unicode="&#x2013;" horiz-adv-x="500" d="M500 237 L500 297 L0 297 L0 237 L500 237 Z " />
<glyph glyph-name="emdash" unicode="&#x2014;" horiz-adv-x="1000" d="M1000 237 L1000 297 L0 297 L0 237 L1000 237 Z " />
<glyph glyph-name="quoteleft" unicode="&#x2018;" horiz-adv-x="278" d="M154 517 L197 722 L145 722 L73 517 L154 517 Z " />
<glyph glyph-name="quoteright" unicode="&#x2019;" horiz-adv-x="278" d="M124 722 L81 517 L133 517 L205 722 L124 722 Z " />
<glyph glyph-name="quotesinglbase" unicode="&#x201a;" horiz-adv-x="278" d="M124 81 L81 -124 L133 -124 L205 81 L124 81 Z " />
<glyph glyph-name="quotedblleft" unicode="&#x201c;" horiz-adv-x="556" d="M384 517 L427 722 L375 722 L303 517 L384 517 Z M200 517 L243 722 L191 722 L119 517 L200 517 Z " />
<glyph glyph-name="quotedblright" unicode="&#x201d;" horiz-adv-x="556" d="M356 722 L313 517 L365 517 L437 722 L356 722 Z M172 722 L129 517 L181 517 L253 722 L172 722 Z " />
<glyph glyph-name="quotedblbase" unicode="&#x201e;" horiz-adv-x="556" d="M354 81 L311 -124 L363 -124 L435 81 L354 81 Z M170 81 L127 -124 L179 -124 L251 81 L170 81 Z " />
<glyph glyph-name="dagger" unicode="&#x2020;" horiz-adv-x="556" d="M248 487 L248 0 L308 0 L308 487 L480 487 L480 542 L308 542 L308 722 L248 722 L248 542 L76 542 L76 487 L248 487 Z " />
<glyph glyph-name="daggerdbl" unicode="&#x2021;" horiz-adv-x="556" d="M248 487 L248 232 L76 232 L76 177 L248 177 L248 0 L308 0 L308 177 L480 177 L480 232 L308 232 L308 487 L480 487 L480 542 L308 542 L308 722 L248 722 L248 542 L76 542 L76 487 L248 487 Z " />
<glyph glyph-name="bullet" unicode="&#x2022;" horiz-adv-x="500" d="M430 361 C430 461 349 541 249 541 C151 541 70 461 70 361 C70 263 151 181 249 181 C349 181 430 263 430 361 L430 361 Z " />
<glyph glyph-name="ellipsis" unicode="&#x2026;" horiz-adv-x="1000" d="M127 86 L127 0 L207 0 L207 86 L127 86 Z M460 86 L460 0 L540 0 L540 86 L460 86 Z M793 86 L793 0 L873 0 L873 86 L793 86 Z " />
<glyph glyph-name="perthousand" unicode="&#x2030;" horiz-adv-x="1000" d="M91 -15 L147 -15 L562 707 L509 707 L91 -15 Z M175 662 C239 662 264 600 264 545 C264 490 239 428 175 428 C111 428 86 490 86 545 C86 600 111 662 175 662 L175 662 Z M478 264 C542 264 567 202 567 147 C567 92 542 30 478 30 C414 30 389 92 389 147 C389 202 414 264 478 264 L478 264 Z M478 -15 C574 -15 622 53 622 147 C622 241 574 309 478 309 C382 309 334 241 334 147 C334 53 382 -15 478 -15 L478 -15 Z M175 383 C271 383 319 451 319 545 C319 639 271 707 175 707 C79 707 31 639 31 545 C31 451 79 383 175 383 L175 383 Z M825 -15 C921 -15 969 53 969 147 C969 241 921 309 825 309 C729 309 681 241 681 147 C681 53 729 -15 825 -15 L825 -15 Z M825 264 C889 264 914 202 914 147 C914 92 889 30 825 30 C761 30 736 92 736 147 C736 202 761 264 825 264 L825 264 Z " />
<glyph glyph-name="guilsinglleft" unicode="&#x2039;" horiz-adv-x="278" d="M164 462 L58 267 L164 72 L214 72 L122 267 L215 462 L164 462 Z " />
<glyph glyph-name="guilsinglright" unicode="&#x203a;" horiz-adv-x="278" d="M114 72 L220 267 L114 462 L64 462 L156 267 L63 72 L114 72 Z " />
<glyph glyph-name="fraction" unicode="&#x2044;" horiz-adv-x="167" d="M319 707 L266 707 L-151 0 L-96 0 L319 707 Z " />
<glyph glyph-name="Euro" unicode="&#x20ac;" horiz-adv-x="556" d="M44 331 L27 275 L92 275 C109 117 187 -15 351 -15 C407 -15 461 6 502 47 L502 130 C461 79 413 45 350 45 C225 45 175 158 162 275 L421 275 L438 331 L158 331 L158 346 C158 358 158 369 159 381 L454 381 L471 437 L165 437 C181 544 232 647 350 647 C415 647 476 612 500 535 L527 623 C483 683 424 707 351 707 C195 707 114 582 95 437 L46 437 L29 381 L89 381 C88 369 88 358 88 346 L88 331 L44 331 Z " />
<glyph glyph-name="afii61289" unicode="&#x2113;" horiz-adv-x="478" d="M422 139 C398 93 349 40 284 40 C225 40 170 86 169 205 L169 236 C294 357 378 479 378 606 C378 694 339 764 257 764 C187 764 110 711 110 528 L110 251 C86 227 59 206 30 182 L51 144 C71 160 92 177 110 192 L110 179 C114 79 159 -10 272 -10 C350 -10 412 32 454 112 L422 139 Z M169 535 C169 670 217 716 257 716 C312 716 332 670 332 604 C332 499 260 398 169 300 L169 535 Z " />
<glyph glyph-name="trademark" unicode="&#x2122;" horiz-adv-x="940" d="M349 722 L29 722 L29 682 L162 682 L162 301 L217 301 L217 682 L349 682 L349 722 Z M523 722 L424 722 L424 301 L479 301 L479 678 L481 678 L626 301 L660 301 L805 678 L807 678 L807 301 L862 301 L862 722 L763 722 L645 411 L643 411 L523 722 Z " />
<glyph glyph-name="Omega" unicode="&#x2126;" horiz-adv-x="724" d="M204 52 L52 52 L52 0 L287 0 L287 39 C208 89 129 212 129 362 C129 523 221 654 364 654 C516 654 593 497 593 364 C593 204 516 91 436 39 L436 0 L671 0 L671 52 L517 52 L517 55 C586 112 657 226 657 375 C657 553 541 707 365 707 C197 707 66 571 66 371 C66 229 131 119 204 55 L204 52 Z " />
<glyph glyph-name="estimated" unicode="&#x212e;" horiz-adv-x="870" d="M836 336 L836 346 C836 545 656 707 434 707 C213 707 34 545 34 346 C34 147 213 -14 434 -14 C563 -14 680 41 751 125 L694 125 C631 53 539 6 435 6 C339 6 253 48 190 113 C184 119 181 127 181 135 L181 332 C181 335 183 336 186 336 L836 336 Z M688 362 C688 359 687 355 684 355 L186 355 C183 355 181 359 181 362 L181 555 C181 564 184 573 191 579 C254 643 340 685 435 685 C530 685 616 645 679 583 C685 576 688 568 688 559 L688 362 Z " />
<glyph glyph-name="partialdiff" unicode="&#x2202;" horiz-adv-x="540" d="M102 676 C129 698 173 724 235 724 C337 724 427 604 427 417 C427 404 427 383 426 371 L425 371 C409 402 350 471 255 471 C144 471 44 373 44 218 C44 104 104 -11 232 -11 C403 -11 488 171 488 400 C488 657 367 776 241 776 C162 776 111 748 78 721 L102 676 Z M237 42 C158 42 106 116 106 219 C106 330 178 419 264 419 C345 419 402 351 417 304 C403 165 338 42 238 42 L237 42 Z " />
<glyph glyph-name="Delta" unicode="&#x2206;" horiz-adv-x="646" d="M32 0 L614 0 L614 46 L360 715 L288 715 L32 46 L32 0 Z M96 52 L258 470 C276 523 310 603 319 640 L324 640 C337 594 374 507 392 453 L546 52 L96 52 Z " />
<glyph glyph-name="product" unicode="&#x220f;" horiz-adv-x="694" d="M667 638 L667 695 L26 695 L26 638 L137 638 L137 -96 L199 -96 L199 638 L494 638 L494 -96 L556 -96 L556 638 L667 638 Z " />
<glyph glyph-name="summation" unicode="&#x2211;" horiz-adv-x="552" d="M529 -96 L529 -36 L105 -36 L105 -33 L371 307 L124 637 L124 641 L514 641 L514 695 L35 695 L35 651 L298 298 L23 -53 L23 -96 L529 -96 Z " />
<glyph glyph-name="minus" unicode="&#x2212;" horiz-adv-x="660" d="M80 221 L580 221 L580 281 L80 281 L80 221 Z " />
<glyph glyph-name="uni2215" unicode="&#x2215;" horiz-adv-x="167" d="M319 707 L266 707 L-151 0 L-96 0 L319 707 Z " />
<glyph glyph-name="uni2219" unicode="&#x2219;" horiz-adv-x="278" d="M179 294 L99 294 L99 208 L179 208 L179 294 Z " />
<glyph glyph-name="radical" unicode="&#x221a;" horiz-adv-x="566" d="M565 825 L517 825 L327 -6 C323 -29 317 -56 314 -75 L313 -74 C309 -55 302 -28 296 -5 L163 378 L34 329 L48 289 L123 317 L286 -151 L343 -151 L565 825 Z " />
<glyph glyph-name="infinity" unicode="&#x221e;" horiz-adv-x="775" d="M724 290 C724 378 667 440 581 440 C497 441 446 379 392 319 C339 381 281 440 206 440 C117 440 51 374 51 285 C51 200 119 133 199 133 C281 133 336 194 389 253 C459 176 509 133 573 133 C651 133 724 194 724 289 L724 290 Z M205 175 C140 175 97 224 97 284 C96 345 133 400 198 400 C272 400 320 338 365 284 C323 240 272 175 206 175 L205 175 Z M576 400 C634 400 679 358 679 286 C679 231 642 175 577 175 C522 175 483 215 415 288 C451 324 506 400 575 400 L576 400 Z " />
<glyph glyph-name="integral" unicode="&#x222b;" horiz-adv-x="348" d="M333 833 C323 840 300 848 280 848 C248 848 216 836 191 810 C153 771 139 710 139 602 C139 448 153 251 153 91 C153 -13 137 -58 117 -84 C105 -99 87 -107 70 -107 C50 -107 33 -99 24 -95 L12 -141 C23 -148 50 -158 74 -158 C111 -158 146 -142 166 -111 C190 -78 211 -19 211 90 C211 249 198 442 198 596 C198 693 207 746 233 777 C246 794 268 800 284 800 C297 800 313 795 321 789 L333 833 Z " />
<glyph glyph-name="approxequal" unicode="&#x2248;" horiz-adv-x="566" d="M490 425 C462 375 435 350 393 350 C356 350 332 366 297 384 C269 399 232 426 183 426 C126 426 78 391 47 333 L76 310 C101 350 130 385 177 385 C211 385 241 368 272 351 C321 324 349 308 390 308 C453 308 491 350 517 401 L490 425 Z M490 258 C461 209 435 183 394 183 C356 183 330 200 297 219 C269 233 233 260 183 260 C127 260 78 225 47 166 L76 143 C101 182 129 219 177 219 C211 219 240 202 272 184 C321 158 349 142 390 142 C453 142 491 184 517 234 L490 258 Z " />
<glyph glyph-name="notequal" unicode="&#x2260;" horiz-adv-x="566" d="M399 501 L364 517 L310 400 L52 400 L52 357 L293 357 L224 208 L52 208 L52 166 L205 166 L158 63 L192 47 L247 166 L514 166 L514 208 L265 208 L334 357 L514 357 L514 400 L352 400 L399 501 Z " />
<glyph glyph-name="lessequal" unicode="&#x2264;" horiz-adv-x="566" d="M511 95 L511 146 L105 342 L105 344 L511 538 L511 590 L58 365 L58 320 L511 95 Z M514 9 L514 53 L52 53 L52 9 L514 9 Z " />
<glyph glyph-name="greaterequal" unicode="&#x2265;" horiz-adv-x="566" d="M58 590 L58 538 L464 343 L464 341 L58 146 L58 95 L512 320 L512 365 L58 590 Z M513 9 L513 53 L52 53 L52 9 L513 9 Z " />
<glyph glyph-name="lozenge" unicode="&#x25ca;" horiz-adv-x="567" d="M511 347 L310 740 L258 740 L56 347 L257 -45 L308 -45 L511 347 Z M452 346 L303 57 C297 44 289 21 285 8 L282 8 C279 20 273 38 264 58 L114 349 L262 635 C271 653 277 671 281 685 L284 685 C288 672 295 651 303 635 L452 346 Z " />
<glyph glyph-name="fi" unicode="&#xfb01;" horiz-adv-x="556" d="M406 502 L406 0 L466 0 L466 502 L406 502 Z M471 722 L401 722 L401 647 L471 647 L471 722 Z M183 0 L183 447 L297 447 L297 502 L183 502 L183 566 C180 638 182 679 264 679 C276 679 289 677 301 675 L301 723 C283 727 263 734 244 734 C158 734 123 695 123 609 L123 502 L22 502 L22 447 L123 447 L123 0 L183 0 Z " />
<glyph glyph-name="fl" unicode="&#xfb02;" horiz-adv-x="556" d="M185 0 L185 447 L299 447 L299 502 L185 502 L185 566 C182 638 184 679 266 679 C278 679 291 677 303 675 L303 723 C285 727 265 734 246 734 C160 734 125 695 125 609 L125 502 L24 502 L24 447 L125 447 L125 0 L185 0 Z M470 722 L410 722 L410 0 L470 0 L470 722 Z " />
</font>
</svg>
